<?xml version="1.0" standalone="no"?>
<!DOCTYPE svg PUBLIC "-//W3C//DTD SVG 1.1//EN" "http://www.w3.org/Graphics/SVG/1.1/DTD/svg11.dtd" >
<svg xmlns="http://www.w3.org/2000/svg" xmlns:xlink="http://www.w3.org/1999/xlink" version="1.1">
<metadata>
Created by FontForge 20201107 at Thu Nov 12 17:46:07 1998
 By 
Typeface (c) The Monotype Corporation plc. Data (c) The Monotype Corporation plc / Type Solutions Inc. 1990-91 All Rights Reserved
</metadata>
<defs>
<font id="CenturyGothic-Italic" horiz-adv-x="1460" >
  <font-face 
    font-family="Century Gothic"
    font-weight="400"
    font-style="italic"
    font-stretch="normal"
    units-per-em="2048"
    panose-1="2 11 5 2 2 2 2 9 2 4"
    ascent="1638"
    descent="-410"
    x-height="1088"
    cap-height="1471"
    bbox="-394 -628 2401 2170"
    underline-thickness="119"
    underline-position="-255"
    slope="-7.59999"
    unicode-range="U+0020-F108"
  />
<missing-glyph horiz-adv-x="1536" 
d="M256 0v1280h1024v-1280h-1024zM288 32h960v1216h-960v-1216z" />
    <glyph glyph-name=".notdef" horiz-adv-x="1536" 
d="M256 0v1280h1024v-1280h-1024zM288 32h960v1216h-960v-1216z" />
    <glyph glyph-name="glyph1" horiz-adv-x="0" 
 />
    <glyph glyph-name="glyph2" horiz-adv-x="567" 
 />
    <glyph glyph-name="space" unicode=" " horiz-adv-x="567" 
 />
    <glyph glyph-name="exclam" unicode="!" horiz-adv-x="604" 
d="M317 1508h138l-151 -1141h-140zM205 216q51 0 86.5 -36t35.5 -86t-35.5 -86t-86.5 -36t-86.5 36t-35.5 86t35.5 86t86.5 36z" />
    <glyph glyph-name="quotedbl" unicode="&#x22;" horiz-adv-x="633" 
d="M616 1045h-103l-22 463h148zM228 1045h-104l-22 463h148z" />
    <glyph glyph-name="numbersign" unicode="#" horiz-adv-x="1475" 
d="M1233 602v-108h-248l-72 -494h-112l72 494h-333l-76 -494h-110l76 494h-246v108h263l51 334h-253v109h269l70 468h107l-68 -468h332l68 468h112l-69 -468h224v-109h-240l-48 -334h231zM940 936h-334l-49 -334h332z" />
    <glyph glyph-name="dollar" unicode="$" horiz-adv-x="1135" 
d="M1032 1255l-114 -83q-60 73 -98.5 102t-91.5 48l-75 -504q199 -111 269 -207.5t70 -219.5q0 -168 -126.5 -292t-335.5 -138l-45 -311h-132l48 320q-142 27 -236 103t-146 195l129 65q47 -96 110.5 -149t161.5 -79l90 623q-153 83 -214 155q-90 105 -90 223q0 88 52 171.5
t149.5 136.5t209.5 57l17 109h131l-19 -120q91 -26 155 -71t131 -134zM596 1336q-114 -17 -180.5 -84t-66.5 -151q0 -59 44.5 -117t137.5 -104zM552 98q149 26 216 100q80 88 80 193q0 67 -43 129.5t-173 142.5z" />
    <glyph glyph-name="percent" unicode="%" horiz-adv-x="1587" 
d="M1491 1536l-1307 -1638h-116l1202 1510q-89 -22 -186 -33t-201 -11q-50 0 -127 5q48 -78 48 -164q0 -168 -111.5 -281t-279.5 -113q-137 0 -222.5 85.5t-85.5 217.5q0 165 120 279.5t264 114.5q39 0 123 -17q159 -33 271 -33q123 0 249 19.5t255 58.5h104zM492 1399
q-108 0 -187.5 -82t-79.5 -192q0 -90 56 -149t143 -59q115 0 188 85.5t73 197.5q0 87 -54.5 143t-138.5 56zM1186 659q130 0 219.5 -87.5t89.5 -215.5q0 -155 -106 -274t-286 -119q-136 0 -221.5 85.5t-85.5 216.5q0 159 117 276.5t273 117.5zM1182 551q-108 0 -187.5 -82
t-79.5 -193q0 -90 56.5 -149t142.5 -59q116 0 189 85.5t73 197.5q0 87 -55 143.5t-139 56.5z" />
    <glyph glyph-name="ampersand" unicode="&#x26;" horiz-adv-x="1550" 
d="M1270 551l92 -112q-113 -93 -199 -153q97 -123 260 -286h-200l-126 132q-26 29 -56 66q-313 -235 -560 -235q-116 0 -192.5 42t-125 124.5t-48.5 174.5q0 80 29 143q39 83 111.5 153t289.5 214q-128 186 -128 312q0 123 97 207.5t247 84.5q130 0 213 -73t83 -172
q0 -90 -60 -180.5t-241 -219.5q100 -132 223 -274l87 -103l112 83zM672 891q148 105 191 163.5t43 108.5q0 45 -42.5 79t-115.5 34q-82 0 -131 -43t-49 -101q0 -81 104 -241zM631 694q-227 -137 -307 -234q-60 -72 -60 -154q0 -95 66 -149.5t146 -54.5q77 0 198 52
q90 39 273 154q-34 34 -67 74q-172 212 -249 312z" />
    <glyph glyph-name="quotesingle" unicode="'" horiz-adv-x="405" 
d="M308 1045h-103l-22 463h148z" />
    <glyph glyph-name="parenleft" unicode="(" horiz-adv-x="756" 
d="M553 1536h162q-180 -287 -284 -658.5t-104 -775.5q0 -300 63 -528h-154q-62 222 -62 506q0 382 100.5 765.5t278.5 690.5z" />
    <glyph glyph-name="parenright" unicode=")" horiz-adv-x="756" 
d="M93 -426h-162q180 286 284.5 660.5t104.5 766.5q0 305 -64 535h154q60 -217 60 -512q0 -382 -99.5 -762.5t-277.5 -687.5z" />
    <glyph glyph-name="asterisk" unicode="*" horiz-adv-x="870" 
d="M399 1508h130l-29 -297l246 176l66 -112l-277 -125l277 -123l-66 -113l-246 174l29 -297h-130l31 297l-246 -174l-66 113l281 123l-281 125l66 112l246 -176z" />
    <glyph glyph-name="plus" unicode="+" horiz-adv-x="1241" 
d="M552 804v434h137v-434h438v-137h-438v-434h-137v434h-437v137h437z" />
    <glyph glyph-name="comma" unicode="," horiz-adv-x="567" 
d="M187 270l127 -64l-256 -376l-94 41z" />
    <glyph glyph-name="hyphen" unicode="-" horiz-adv-x="680" 
d="M21 614h551l-18 -122h-550z" />
    <glyph glyph-name="hyphen" unicode="&#xad;" horiz-adv-x="680" 
d="M21 614h551l-18 -122h-550z" />
    <glyph glyph-name="period" unicode="." horiz-adv-x="567" 
d="M182 216q51 0 86.5 -36t35.5 -86t-35.5 -86t-86.5 -36t-86.5 36t-35.5 86t35.5 86t86.5 36z" />
    <glyph glyph-name="slash" unicode="/" horiz-adv-x="895" 
d="M836 1508l-611 -1708h-153l610 1708h154z" />
    <glyph glyph-name="zero" unicode="0" horiz-adv-x="1135" 
d="M633 1508q167 0 280.5 -144.5t113.5 -410.5q0 -304 -93 -545.5t-223 -343t-278 -101.5q-112 0 -197.5 59.5t-138 180t-52.5 311.5q0 317 89 553.5t221.5 338.5t277.5 102zM619 1368q-90 0 -190.5 -87.5t-167.5 -292t-67 -487.5q0 -203 71 -301t176 -98q107 0 206.5 98.5
t157.5 282.5q73 230 73 491q0 197 -74 295.5t-185 98.5z" />
    <glyph glyph-name="one" unicode="1" horiz-adv-x="1135" 
d="M451 1471h307l-195 -1471h-144l177 1329h-198z" />
    <glyph glyph-name="two" unicode="2" horiz-adv-x="1135" 
d="M275 1026h-149q12 230 137 356t324 126q169 0 282 -110.5t113 -273.5q0 -114 -58 -226t-299 -374l-343 -379h631l-17 -145h-936l485 539q278 309 332.5 405t54.5 184q0 102 -74 172.5t-187 70.5q-126 0 -207.5 -90t-88.5 -255z" />
    <glyph glyph-name="three" unicode="3" horiz-adv-x="1135" 
d="M344 1155h-149q23 158 138 255.5t272 97.5q167 0 275 -107.5t108 -275.5q0 -111 -53.5 -189t-185.5 -142q208 -121 208 -343q0 -131 -66.5 -243.5t-185 -178.5t-255.5 -66q-175 0 -296 113t-145 313h147q16 -105 51.5 -159.5t104 -89.5t143.5 -35q135 0 243.5 104.5
t108.5 232.5q0 83 -42.5 152.5t-122 105.5t-208.5 36l16 130l38 -1q158 0 255.5 79t97.5 189q0 97 -71 164t-175 67q-96 0 -165.5 -57t-85.5 -152z" />
    <glyph glyph-name="four" unicode="4" horiz-adv-x="1135" 
d="M893 1508l-140 -1050h206l-19 -146h-205l-41 -312h-142l41 312h-645l914 1196h31zM691 1043l-448 -585h369z" />
    <glyph glyph-name="five" unicode="5" horiz-adv-x="1135" 
d="M455 1471h595l-19 -145h-472l-104 -355q49 5 79 5q107 0 204 -61t154.5 -171.5t57.5 -241.5q0 -147 -70 -275.5t-183.5 -196t-254.5 -67.5q-149 0 -263 77.5t-190 243.5l136 59q51 -118 136 -178t185 -60q134 0 244 106.5t110 287.5q0 153 -89 249t-227 96
q-108 0 -233 -51z" />
    <glyph glyph-name="six" unicode="6" horiz-adv-x="1135" 
d="M713 1508l105 -86l-395 -469q70 22 126 22q169 0 298 -121q152 -142 152 -368q0 -222 -145 -372.5t-358 -150.5q-203 0 -339.5 138t-136.5 343q0 133 57 257t244 344zM517 842q-146 0 -249 -111t-103 -274q0 -151 95.5 -250.5t230.5 -99.5q137 0 249.5 103.5t112.5 276.5
q0 151 -98 253t-238 102z" />
    <glyph glyph-name="seven" unicode="7" horiz-adv-x="1135" 
d="M177 1471h932l-954 -1508l-116 73l819 1296h-703z" />
    <glyph glyph-name="eight" unicode="8" horiz-adv-x="1135" 
d="M746 794q107 -55 158 -125q71 -98 71 -223q0 -129 -67.5 -242t-187.5 -177t-267 -64q-193 0 -320 120t-127 287q0 138 80.5 252t248.5 191q-92 62 -130.5 129.5t-38.5 148.5q0 165 135 291t323 126q164 0 272.5 -104.5t108.5 -252.5q0 -113 -64.5 -202t-194.5 -155z
M620 1364q-129 0 -218 -81.5t-89 -188.5q0 -96 69 -158.5t182 -62.5q122 0 207 81.5t85 190.5q0 91 -67.5 155t-168.5 64zM542 727q-153 0 -270 -98t-117 -256q0 -119 84 -196.5t219 -77.5q102 0 190 45.5t137 126.5t49 167q0 122 -83.5 205.5t-208.5 83.5z" />
    <glyph glyph-name="nine" unicode="9" horiz-adv-x="1135" 
d="M351 -37l-105 86l395 468q-69 -22 -125 -22q-169 0 -299 122q-151 141 -151 368q0 222 145 372.5t357 150.5q203 0 340 -138.5t137 -343.5q0 -133 -57.5 -256.5t-243.5 -343.5zM548 629q146 0 249 110.5t103 274.5q0 150 -96 250t-231 100q-137 0 -249 -104t-112 -277
q0 -150 98 -252t238 -102z" />
    <glyph glyph-name="colon" unicode=":" horiz-adv-x="567" 
d="M305 1116q51 0 86.5 -36t35.5 -86q0 -51 -35.5 -86.5t-86.5 -35.5t-86.5 35.5t-35.5 86.5q0 50 36 86t86 36zM182 216q51 0 86.5 -36t35.5 -86t-35.5 -86t-86.5 -36t-86.5 36t-35.5 86t35.5 86t86.5 36z" />
    <glyph glyph-name="semicolon" unicode=";" horiz-adv-x="567" 
d="M306 1116q51 0 86.5 -36t35.5 -86q0 -51 -35.5 -86.5t-86.5 -35.5t-86.5 35.5t-35.5 86.5q0 50 35.5 86t86.5 36zM187 270l127 -64l-256 -376l-94 41z" />
    <glyph glyph-name="semicolon" unicode="&#x37e;" horiz-adv-x="567" 
d="M306 1116q51 0 86.5 -36t35.5 -86q0 -51 -35.5 -86.5t-86.5 -35.5t-86.5 35.5t-35.5 86.5q0 50 35.5 86t86.5 36zM187 270l127 -64l-256 -376l-94 41z" />
    <glyph glyph-name="less" unicode="&#x3c;" horiz-adv-x="1241" 
d="M1137 347v-146l-1033 469v130l1033 471v-147l-839 -390z" />
    <glyph glyph-name="equal" unicode="=" horiz-adv-x="1241" 
d="M1127 1024v-137h-1012v137h1012zM1127 584v-137h-1012v137h1012z" />
    <glyph glyph-name="greater" unicode="&#x3e;" horiz-adv-x="1241" 
d="M104 347l839 387l-839 390v147l1033 -471v-130l-1033 -469v146z" />
    <glyph glyph-name="question" unicode="?" horiz-adv-x="1210" 
d="M353 1100h-136q23 215 150 325.5t322 110.5q170 0 274.5 -91t104.5 -225q0 -99 -47 -173.5t-140 -126.5q-44 -25 -232 -90q-158 -55 -214 -110q-57 -56 -57 -114q0 -50 51 -89t133 -39q100 0 164 54.5t84 164.5h136q-15 -168 -115.5 -260t-270.5 -92q-143 0 -229 78
t-86 192q0 108 77 187q76 78 362 181q140 51 184 88q62 54 62 144q0 84 -65 135t-191 51q-283 0 -321 -301zM505 216q50 0 86 -36t36 -86q0 -51 -35.5 -86.5t-86.5 -35.5t-86.5 36t-35.5 86t35.5 86t86.5 36z" />
    <glyph glyph-name="at" unicode="@" horiz-adv-x="1776" 
d="M1444 301h106q-134 -167 -248 -234q-162 -94 -369 -94q-219 0 -404 103.5t-288.5 282.5t-103.5 391q0 215 104.5 400t284.5 287.5t394 102.5q302 0 510 -193.5t208 -450.5q0 -187 -86.5 -322.5t-234.5 -210.5q-113 -58 -193 -58q-58 0 -92 31q-26 23 -27 80
q-34 -43 -93.5 -72t-123.5 -29q-144 0 -238 99.5t-94 263.5q0 177 114 323t314 146q88 0 147.5 -33t112.5 -115l26 138h108l-116 -654q-5 -32 -5 -41q0 -23 14 -36t36 -13q59 0 153.5 68.5t147 176t52.5 238.5q0 254 -197 421q-184 155 -448 155q-196 0 -355.5 -89.5
t-252 -252t-92.5 -351.5q0 -191 93 -352.5t257.5 -253.5t362.5 -92q145 0 263 52t253 188zM838 428q66 0 124 41.5t92 124.5q44 109 44 219q0 101 -56.5 164t-146.5 63q-120 0 -207.5 -98.5t-87.5 -245.5q0 -123 66.5 -195.5t171.5 -72.5z" />
    <glyph glyph-name="A" unicode="A" horiz-adv-x="1515" 
d="M852 1471l493 -1471h-151l-161 481h-623l-275 -481h-164l847 1471h34zM805 1163l-314 -542h496z" />
    <glyph glyph-name="B" unicode="B" horiz-adv-x="1176" 
d="M246 1471h189q278 0 376 -33.5t158.5 -116.5t60.5 -196q0 -118 -64 -211t-172 -134q130 -40 204 -136.5t74 -228.5q0 -135 -63.5 -232t-170.5 -140t-369 -43h-419zM373 1331l-66 -488q43 -4 100 -4q200 0 288.5 32t137.5 100.5t49 151.5q0 108 -76.5 159.5t-325.5 51.5
q-43 0 -107 -3zM289 699l-74 -560h199q208 0 286 17q110 25 166.5 90.5t56.5 168.5q0 92 -46 153.5t-151 96t-314 34.5h-123z" />
    <glyph glyph-name="C" unicode="C" horiz-adv-x="1665" 
d="M1576 1268l-89 -123q-234 220 -533 220q-195 0 -364.5 -95t-265 -256t-95.5 -346q0 -165 73.5 -293t212.5 -200.5t318 -72.5q273 0 509 173l82 -117q-175 -115 -301 -155t-291 -40q-305 0 -497 153q-255 205 -255 547q0 353 255 599t634 246q173 0 315 -54.5t292 -185.5z
" />
    <glyph glyph-name="D" unicode="D" horiz-adv-x="1524" 
d="M241 1471h316q300 0 460 -78.5t258 -243t98 -375.5q0 -225 -110.5 -416t-272 -274.5t-481.5 -83.5h-463zM368 1329l-157 -1186h129q298 0 395 16q148 24 249 94.5t173 211t72 306.5q0 175 -81.5 306t-223.5 196q-121 56 -409 56h-147z" />
    <glyph glyph-name="E" unicode="E" horiz-adv-x="1098" 
d="M1056 1471l-21 -143h-662l-65 -482h662l-19 -141h-662l-75 -564h662l-17 -141h-811l197 1471h811z" />
    <glyph glyph-name="F" unicode="F" horiz-adv-x="993" 
d="M955 1471l-18 -144h-565l-65 -481h565l-18 -141h-565l-97 -705h-145l198 1471h710z" />
    <glyph glyph-name="G" unicode="G" horiz-adv-x="1786" 
d="M1597 1155l-118 -87q-111 145 -260.5 222.5t-306.5 77.5q-176 0 -338 -94.5t-254.5 -251t-92.5 -335.5q0 -243 173.5 -413.5t422.5 -170.5q149 0 286 61t222 162t124 250h-539v145h716q-22 -338 -242.5 -548t-549.5 -210q-338 0 -549 205t-211 515q0 221 111 412.5
t305.5 302t419.5 110.5q407 0 681 -353z" />
    <glyph glyph-name="H" unicode="H" horiz-adv-x="1399" 
d="M245 1471h145l-79 -598h753l80 598h143l-193 -1471h-144l97 734h-757l-96 -734h-146z" />
    <glyph glyph-name="I" unicode="I" horiz-adv-x="463" 
d="M238 1471h148l-199 -1471h-148z" />
    <glyph glyph-name="J" unicode="J" horiz-adv-x="987" 
d="M680 1471h145l-133 -1014q-30 -229 -69.5 -314.5t-116 -132.5t-177.5 -47q-93 0 -179 40.5t-175 136.5l113 80q125 -121 244 -121q90 0 145 82q42 62 69 265z" />
    <glyph glyph-name="K" unicode="K" horiz-adv-x="1210" 
d="M243 1471h145l-79 -597l689 597h211l-797 -688l690 -783h-188l-625 710l-98 -710h-144z" />
    <glyph glyph-name="L" unicode="L" horiz-adv-x="946" 
d="M246 1471h148l-177 -1333h636l-17 -138h-784z" />
    <glyph glyph-name="M" unicode="M" horiz-adv-x="1882" 
d="M1642 1471v-1471h-138v1014l-638 -1014h-37l-381 1050l-302 -1050h-149l425 1471h24l430 -1195l743 1195h23z" />
    <glyph glyph-name="N" unicode="N" horiz-adv-x="1515" 
d="M1265 1471h144l-199 -1471h-32l-828 1140l-154 -1140h-146l198 1471h32l830 -1142z" />
    <glyph glyph-name="O" unicode="O" horiz-adv-x="1780" 
d="M956 1508q297 0 494.5 -195t197.5 -493q0 -363 -250.5 -610t-624.5 -247q-318 0 -509 190t-191 497q0 237 114.5 435t317 310.5t451.5 112.5zM953 1369q-211 0 -376.5 -92t-262 -261t-96.5 -360q0 -162 70 -290.5t193.5 -196.5t290.5 -68q198 0 367 95.5t265.5 265
t96.5 366.5q0 261 -183 414q-152 127 -365 127z" />
    <glyph glyph-name="P" unicode="P" horiz-adv-x="1212" 
d="M262 1471h401q199 0 285.5 -37t138.5 -118.5t52 -192.5q0 -145 -82 -252.5t-207 -146.5q-91 -29 -321 -29h-223l-94 -695h-147zM392 1329l-68 -489h205q207 0 286.5 28.5t128 98t48.5 154.5q0 70 -33 119t-91 69t-213 20h-263z" />
    <glyph glyph-name="Q" unicode="Q" horiz-adv-x="1784" 
d="M1399 209l252 -268h-187l-170 180q-224 -158 -519 -158q-318 0 -509 190t-191 497q0 236 113.5 433.5t316 311t441.5 113.5q307 0 505.5 -194.5t198.5 -493.5q0 -360 -251 -611zM1298 315q97 100 151 234.5t54 278.5q0 238 -156 389.5t-407 151.5q-197 0 -363.5 -94
t-261.5 -261.5t-95 -357.5q0 -162 70 -290.5t193.5 -196.5t289.5 -68q230 0 420 127l-247 261h189z" />
    <glyph glyph-name="R" unicode="R" horiz-adv-x="1243" 
d="M278 1471h369q197 0 282 -37.5t138 -120t53 -191.5q0 -119 -62.5 -221t-170.5 -153.5t-284 -51.5l444 -696h-167l-443 696h-116l-95 -696h-148zM407 1330l-66 -490h169q188 0 246 15q97 24 156.5 94.5t59.5 172.5q0 115 -83 167q-64 41 -230 41h-252z" />
    <glyph glyph-name="S" unicode="S" horiz-adv-x="1020" 
d="M927 1199l-139 -35q-28 93 -92 147t-138 54q-82 0 -133.5 -55.5t-51.5 -148.5q0 -82 55 -171q34 -56 164 -174q135 -122 188.5 -227.5t53.5 -206.5q0 -107 -58.5 -206t-157.5 -156t-210 -57q-141 0 -244.5 90t-148.5 264l136 46q32 -132 104 -196t166 -64q107 0 184 79
t77 195q0 85 -43.5 166t-170.5 195q-136 124 -177 190q-67 110 -67 232q0 151 98.5 249.5t244.5 98.5q123 0 219 -78t141 -231z" />
    <glyph glyph-name="T" unicode="T" horiz-adv-x="872" 
d="M73 1471h879l-19 -140h-375l-177 -1331h-147l177 1331h-357z" />
    <glyph glyph-name="U" unicode="U" horiz-adv-x="1341" 
d="M233 1471h145l-111 -842q-22 -168 -22 -239q0 -138 79 -212.5t223 -74.5q101 0 179 34t132.5 99t77.5 150q40 148 69 374l92 711h145l-98 -743l-24 -182q-21 -127 -50 -216.5t-76 -158.5t-107 -113t-145.5 -69.5t-191.5 -25.5q-217 0 -335 110t-118 292q0 51 6 114
l22 172z" />
    <glyph glyph-name="V" unicode="V" horiz-adv-x="1438" 
d="M122 1471h148l365 -1165l683 1165h163l-862 -1471h-34z" />
    <glyph glyph-name="W" unicode="W" horiz-adv-x="1966" 
d="M126 1471h143l204 -1093l569 1093h28l257 -1093l520 1093h155l-702 -1471h-27l-259 1108l-586 -1108h-27z" />
    <glyph glyph-name="X" unicode="X" horiz-adv-x="1247" 
d="M217 1471h156l260 -572l433 572h172l-540 -713l348 -758h-155l-288 627l-476 -627h-173l584 771z" />
    <glyph glyph-name="Y" unicode="Y" horiz-adv-x="1212" 
d="M83 1471h154l315 -668l531 668h178l-652 -819l-89 -652h-144l89 660z" />
    <glyph glyph-name="Z" unicode="Z" horiz-adv-x="983" 
d="M217 1471h756l-722 -1331h551l-19 -140h-770l725 1329h-540z" />
    <glyph glyph-name="bracketleft" unicode="[" horiz-adv-x="719" 
d="M370 1508h336l-20 -142h-196l-228 -1627h195l-19 -137h-336z" />
    <glyph glyph-name="backslash" unicode="\" horiz-adv-x="1239" 
d="M220 1508l952 -1708h-153l-953 1708h154z" />
    <glyph glyph-name="bracketright" unicode="]" horiz-adv-x="719" 
d="M240 -398h-336l20 142h195l229 1627h-195l19 137h336z" />
    <glyph glyph-name="asciicircum" unicode="^" horiz-adv-x="1376" 
d="M629 1471h118l510 -1106h-133l-439 952l-436 -952h-129z" />
    <glyph glyph-name="underscore" unicode="_" horiz-adv-x="1024" 
d="M-12 -154h1048v-102h-1048v102z" />
    <glyph glyph-name="grave" unicode="`" horiz-adv-x="774" 
d="M430 1598l175 -308h-138l-252 308h215z" />
    <glyph glyph-name="a" unicode="a" horiz-adv-x="1399" 
d="M1121 0h-141l21 164q-189 -192 -433 -192q-222 0 -365 143t-143 368q0 260 185.5 446.5t436.5 186.5q136 0 238.5 -57t175.5 -178l25 207h145zM583 100q135 0 246 63.5t176 182.5t65 259q0 169 -107 275t-278 106q-201 0 -344 -145t-143 -356q0 -173 107 -279t278 -106z
" />
    <glyph glyph-name="b" unicode="b" horiz-adv-x="1397" 
d="M260 1508h142l-77 -583q189 191 432 191q223 0 365.5 -143t142.5 -368q0 -260 -185 -446.5t-436 -186.5q-136 0 -239 57.5t-176 178.5l-25 -208h-145zM742 988q-134 0 -245.5 -63.5t-176.5 -182.5t-65 -259q0 -169 107.5 -275t277.5 -106q201 0 344 145t143 356
q0 173 -106.5 279t-278.5 106z" />
    <glyph glyph-name="c" unicode="c" horiz-adv-x="1325" 
d="M1198 853l-115 -67q-121 196 -370 196q-144 0 -263 -64t-186 -178t-67 -244q0 -115 50 -206t140.5 -140t213.5 -49q126 0 240.5 50t178.5 129l115 -81q-108 -118 -234.5 -172.5t-293.5 -54.5q-258 0 -402.5 140.5t-144.5 374.5q0 260 189.5 444.5t464.5 184.5
q165 0 291 -69.5t193 -193.5z" />
    <glyph glyph-name="d" unicode="d" horiz-adv-x="1403" 
d="M1123 0h-141l21 164q-189 -192 -433 -192q-222 0 -365 143t-143 368q0 260 185.5 446.5t436.5 186.5q136 0 238.5 -57t175.5 -178l81 627h145zM585 100q135 0 246 63.5t176 182.5t65 259q0 169 -107 275t-278 106q-201 0 -344 -145t-143 -356q0 -173 107 -279t278 -106z
" />
    <glyph glyph-name="e" unicode="e" horiz-adv-x="1331" 
d="M1166 516h-970q-3 -194 101 -305t277 -111q115 0 213 47t162 132l104 -85q-79 -101 -206.5 -161.5t-275.5 -60.5q-256 0 -384.5 158.5t-128.5 356.5q0 162 86.5 312t231.5 233.5t314 83.5q209 0 346 -141.5t137 -360.5q0 -40 -7 -98zM1038 637q-6 154 -105 249.5
t-249 95.5q-163 0 -287.5 -92t-176.5 -253h818z" />
    <glyph glyph-name="f" unicode="f" horiz-adv-x="643" 
d="M666 1471l-19 -132q-75 72 -141 72q-42 0 -72 -41t-47 -166l-17 -116h224l-15 -123h-224l-136 -965h-137l137 965h-137l15 123h138l13 96q24 169 51 226t80 91.5t117 34.5q84 0 170 -65z" />
    <glyph glyph-name="g" unicode="g" horiz-adv-x="1378" 
d="M1113 1088h137l-125 -921q-30 -223 -73 -312q-59 -123 -196 -202t-324 -79q-184 0 -313.5 75t-196.5 217l125 45q114 -207 385 -207q143 0 247.5 58t149.5 149q27 55 55 239l6 43q-177 -193 -431 -193q-225 0 -362 137.5t-137 357.5q0 162 83.5 304.5t230 229.5t297.5 87
q126 0 230 -56.5t185 -178.5zM698 983q-137 0 -254.5 -65.5t-182 -177.5t-64.5 -251q0 -160 102 -258t274 -98q208 0 345.5 136t137.5 343q0 182 -112 276.5t-246 94.5z" />
    <glyph glyph-name="h" unicode="h" horiz-adv-x="1249" 
d="M248 1508h136l-80 -585q168 193 384 193q165 0 269.5 -103t104.5 -268q0 -91 -22 -245l-68 -500h-138l68 500q21 151 21 240q0 112 -70 181t-184 69q-106 0 -200.5 -57t-146 -154t-80.5 -308l-65 -471h-136z" />
    <glyph glyph-name="i" unicode="i" horiz-adv-x="410" 
d="M274 1536q46 0 79 -33t33 -79q0 -47 -33 -79.5t-79 -32.5q-47 0 -79.5 32.5t-32.5 79.5q0 46 32.5 79t79.5 33zM164 1088h133l-145 -1088h-138z" />
    <glyph glyph-name="j" unicode="j" horiz-adv-x="416" 
d="M281 1536q46 0 79 -33t33 -79q0 -47 -33 -79.5t-79 -32.5q-47 0 -80 32.5t-33 79.5q0 46 33 79t80 33zM170 1088h137l-159 -1158q-30 -215 -84.5 -285.5t-139.5 -70.5q-53 0 -121 28l17 119q37 -22 71 -22q41 0 64 32q33 48 48 156z" />
    <glyph glyph-name="k" unicode="k" horiz-adv-x="1028" 
d="M252 1508h136l-115 -823l524 403h218l-632 -486l557 -602h-186l-502 540l-73 -540h-140z" />
    <glyph glyph-name="l" unicode="l" horiz-adv-x="410" 
d="M225 1508h137l-210 -1508h-138z" />
    <glyph glyph-name="m" unicode="m" horiz-adv-x="1921" 
d="M191 1088h137l-22 -154q63 85 161 133.5t197 48.5q123 0 218 -73q73 -57 109 -170q74 116 182.5 179.5t220.5 63.5q151 0 248 -97t97 -251q0 -70 -13 -171l-81 -597h-136l73 522q23 164 23 240q0 95 -62.5 157t-164.5 62q-108 0 -201 -67.5t-132 -159.5t-59 -232
l-74 -522h-139l82 597q14 95 14 156q0 105 -62 168t-162 63q-84 0 -161 -39.5t-126 -103.5t-74.5 -158.5t-36.5 -170.5l-72 -512h-139z" />
    <glyph glyph-name="n" unicode="n" horiz-adv-x="1249" 
d="M192 1088h134l-21 -167q165 195 384 195q168 0 271 -103.5t103 -278.5q0 -70 -22 -235l-68 -499h-138l67 499q22 160 22 236q0 114 -69 184t-181 70q-110 0 -204.5 -56.5t-146.5 -154t-80 -308.5l-65 -470h-137z" />
    <glyph glyph-name="o" unicode="o" horiz-adv-x="1341" 
d="M680 1116q139 0 255 -66.5t181 -185t65 -268.5q0 -171 -83 -317.5t-223 -226.5t-317 -80q-219 0 -360.5 143.5t-141.5 365.5q0 174 83 321t227.5 230.5t313.5 83.5zM677 983q-130 0 -244.5 -65t-176 -178.5t-61.5 -250.5q0 -172 106 -279.5t274 -107.5q131 0 237.5 62.5
t169.5 180.5t63 253q0 113 -47 200.5t-133 136t-188 48.5z" />
    <glyph glyph-name="p" unicode="p" horiz-adv-x="1397" 
d="M204 1088h142l-21 -163q189 191 432 191q223 0 365.5 -143t142.5 -368q0 -260 -185 -446.5t-436 -186.5q-136 0 -239 57.5t-175 178.5l-79 -606h-145zM742 988q-134 0 -245.5 -63.5t-176.5 -182.5t-65 -259q0 -169 107.5 -275t277.5 -106q201 0 344 145t143 356
q0 173 -106.5 279t-278.5 106z" />
    <glyph glyph-name="q" unicode="q" horiz-adv-x="1397" 
d="M1067 -398h-142l75 562q-189 -192 -433 -192q-222 0 -365 143t-143 368q0 260 185.5 446.5t436.5 186.5q136 0 238.5 -57t175.5 -178l25 207h145zM582 100q135 0 246 63.5t176 182.5t65 259q0 169 -107 275t-278 106q-201 0 -344 -145t-143 -356q0 -173 107 -279
t278 -106z" />
    <glyph glyph-name="r" unicode="r" horiz-adv-x="616" 
d="M133 1088h139l-18 -137q56 78 135 121.5t162 43.5q59 0 123 -28l-66 -128q-52 21 -87 21q-73 0 -144.5 -51t-116 -148.5t-75.5 -320.5l-64 -461h-136z" />
    <glyph glyph-name="s" unicode="s" horiz-adv-x="795" 
d="M694 966l-76 -113q-92 131 -218 131q-72 0 -123 -47t-51 -104q0 -44 31 -84q30 -40 137 -109q156 -101 206 -176q49 -76 49 -175q0 -137 -95.5 -227t-248.5 -90q-202 0 -340 179l85 99q121 -147 263 -147q81 0 141 57t60 132q0 61 -45 117q-29 36 -156 122
q-137 94 -180 156q-43 61 -43 138q0 121 91 206t230 85q82 0 148.5 -33t134.5 -117z" />
    <glyph glyph-name="t" unicode="t" horiz-adv-x="694" 
d="M363 1495h137l-54 -407h216l-16 -122h-216l-132 -966h-140l131 966h-187l17 122h186z" />
    <glyph glyph-name="u" unicode="u" horiz-adv-x="1245" 
d="M188 1088h140l-63 -455q-26 -193 -26 -248q0 -125 83.5 -204t220.5 -79q114 0 198 60t120 157q18 49 43 225l78 544h137l-56 -412q-40 -295 -85 -419.5t-160.5 -204.5t-281.5 -80q-189 0 -309.5 115.5t-120.5 288.5q0 69 11 161l10 96l5 41z" />
    <glyph glyph-name="v" unicode="v" horiz-adv-x="1135" 
d="M56 1088h143l275 -796l458 796h152l-627 -1088h-26z" />
    <glyph glyph-name="w" unicode="w" horiz-adv-x="1702" 
d="M70 1088h139l224 -768l409 768h24l248 -776l400 776h150l-562 -1088h-28l-252 768l-409 -768h-26z" />
    <glyph glyph-name="x" unicode="x" horiz-adv-x="983" 
d="M36 1088h158l265 -425l311 425h168l-403 -548l329 -540h-159l-258 418l-307 -418h-168l399 540z" />
    <glyph glyph-name="y" unicode="y" horiz-adv-x="1098" 
d="M47 1088h144l282 -803l466 803h155l-862 -1486h-157l308 531z" />
    <glyph glyph-name="z" unicode="z" horiz-adv-x="870" 
d="M92 1088h748l-650 -964h591l-16 -124h-822l653 965h-520z" />
    <glyph glyph-name="braceleft" unicode="{" horiz-adv-x="719" 
d="M62 591q61 2 102 24q55 29 87 81t50 144q8 44 32.5 208.5t54 235.5t77 113.5t115.5 61.5q42 12 129 12h55l-22 -157h-31q-84 0 -118 -19.5t-52.5 -61t-40.5 -199.5q-29 -210 -60 -295t-79.5 -136t-143.5 -93q82 -37 121.5 -102.5t39.5 -176.5q0 -70 -25 -246
q-18 -129 -18 -171q0 -60 30 -84t120 -24h31l-22 -157h-55q-93 0 -132 12q-67 22 -104.5 78.5t-37.5 145.5q0 62 27 256q18 138 18 195q0 94 -44 142t-127 50z" />
    <glyph glyph-name="bar" unicode="|" horiz-adv-x="1376" 
d="M616 1508h143v-1906h-143v1906z" />
    <glyph glyph-name="braceright" unicode="}" horiz-adv-x="719" 
d="M535 428q-61 -1 -102 -23q-54 -30 -86 -81.5t-50 -144.5q-8 -44 -33 -208t-54 -235t-77 -114t-116 -62q-41 -11 -128 -11h-56l22 157h31q84 0 118.5 19t52.5 60.5t40 199.5q30 210 61 295t79.5 136t142.5 94q-81 36 -120.5 101.5t-39.5 177.5q0 69 25 245q18 130 18 172
q0 59 -30.5 83.5t-120.5 24.5h-31l22 157h56q93 0 131 -13q67 -22 104.5 -78.5t37.5 -144.5q0 -63 -26 -256q-19 -139 -19 -195q0 -95 44 -143t127 -50z" />
    <glyph glyph-name="asciitilde" unicode="~" horiz-adv-x="1241" 
d="M1128 837v-162q-112 -63 -160.5 -79.5t-91.5 -16.5q-95 0 -265 77q-132 60 -168.5 71.5t-68.5 11.5q-44 0 -97 -19t-165 -86v160q110 62 159 79t95 17q97 0 268 -81q118 -56 161.5 -69.5t78.5 -13.5q42 0 85 16.5t169 94.5z" />
    <glyph glyph-name="nbspace" unicode="&#xa0;" horiz-adv-x="573" 
 />
    <glyph glyph-name="exclamdown" unicode="&#xa1;" horiz-adv-x="604" 
d="M308 867q-50 0 -86 35.5t-36 85.5q0 51 36 86.5t86 35.5q51 0 87 -35.5t36 -86.5q0 -50 -36 -85.5t-87 -35.5zM197 -426h-138l150 1141h140z" />
    <glyph glyph-name="cent" unicode="&#xa2;" horiz-adv-x="1135" 
d="M1022 1352l103 -68l-168 -260q50 -33 93 -74l-86 -110q-38 35 -82 68l-500 -770q80 -32 162 -32q200 0 359 141l78 -109q-189 -166 -449 -166q-121 0 -226 51l-198 -307l-109 69l204 310q-84 90 -121 180t-37 199q0 167 85 317t231.5 237.5t299.5 87.5q84 0 186 -34z
M768 964q-57 18 -100 18q-123 0 -237 -68t-181 -185.5t-67 -249.5q0 -157 96 -267z" />
    <glyph glyph-name="sterling" unicode="&#xa3;" horiz-adv-x="1135" 
d="M128 844h254q-31 205 -31 263q0 183 110.5 292t285.5 109q149 0 238 -92.5t89 -256.5l-1 -35h-144q-5 135 -51 188.5t-137 53.5q-106 0 -174.5 -67.5t-68.5 -173.5q0 -94 35 -281h318l-18 -137h-284q3 -64 3 -111q0 -193 -55 -338q152 -113 174 -125q38 -19 70 -19
q53 0 92 63t52 166h146q-12 -148 -91.5 -264t-202.5 -116q-64 0 -123 28q-84 41 -184 131q-114 -159 -253 -159q-85 0 -138 53t-53 137q0 93 68.5 162t163.5 69q80 0 154 -41q32 113 32 198l-7 166h-288zM317 211q-58 37 -100 37q-41 0 -68 -23.5t-27 -56.5q0 -30 18.5 -49
t46.5 -19q65 0 130 111z" />
    <glyph glyph-name="currency" unicode="&#xa4;" horiz-adv-x="1135" 
d="M42 192l116 114q-61 82 -84.5 153.5t-23.5 154.5q0 89 28 171q21 63 83 140l-120 117l90 91l120 -119q76 59 156.5 85.5t164.5 26.5q81 0 156 -24t156 -82l117 113l88 -91l-116 -112q64 -79 89.5 -153t25.5 -162q0 -86 -24.5 -158.5t-84.5 -150.5l116 -114l-89 -90
l-116 115q-79 -62 -156.5 -88.5t-164.5 -26.5q-86 0 -162.5 26t-158.5 89l-117 -115zM193 612q0 -154 110.5 -263t265.5 -109q156 0 266 110t110 265t-109.5 264.5t-265.5 109.5t-266.5 -110.5t-110.5 -266.5z" />
    <glyph glyph-name="yen" unicode="&#xa5;" horiz-adv-x="1135" 
d="M145 1471h153l253 -603l411 603h168l-516 -766h367l-18 -115h-366l-22 -155h366l-17 -117h-367l-44 -318h-145l45 318h-368l16 117h369l21 155h-368l15 115h368z" />
    <glyph glyph-name="brokenbar" unicode="&#xa6;" horiz-adv-x="1376" 
d="M616 686v822h143v-767zM616 -398v957l143 54v-1011h-143z" />
    <glyph glyph-name="section" unicode="&#xa7;" horiz-adv-x="1259" 
d="M1045 1195h-139q-26 200 -207 200q-111 0 -182.5 -63t-71.5 -146q0 -66 58 -129t209 -158q166 -105 224 -185.5t58 -158.5q0 -69 -39.5 -138.5t-115.5 -120t-184 -72.5q106 -85 145 -155.5t39 -147.5q0 -88 -51 -169.5t-147 -129.5t-213 -48q-153 0 -245.5 73.5
t-117.5 213.5h141q27 -80 82 -117t145 -37q115 0 188.5 62t73.5 148q0 30 -11.5 60t-35.5 59q-47 58 -255 205q-154 109 -201.5 181.5t-47.5 165.5q0 109 81.5 199.5t227.5 124.5q-79 62 -113.5 128t-34.5 142q0 145 111 249.5t282 104.5q151 0 246 -92t101 -249zM553 839
q-126 -18 -199 -86t-73 -149q0 -48 26.5 -93.5t92.5 -97.5l153 -107q134 12 215.5 84.5t81.5 152.5q0 38 -18.5 73.5t-72.5 77.5z" />
    <glyph glyph-name="dieresis" unicode="&#xa8;" horiz-adv-x="756" 
d="M279 1518q43 0 72 -29t29 -71q0 -52 -40.5 -92t-94.5 -40q-42 0 -70.5 28.5t-28.5 71.5q0 52 40 92t93 40zM687 1518q44 0 72.5 -29t28.5 -71q0 -52 -40.5 -92t-93.5 -40q-43 0 -71.5 28.5t-28.5 71.5q0 52 40 92t93 40z" />
    <glyph glyph-name="copyright" unicode="&#xa9;" horiz-adv-x="1530" 
d="M1551 757q0 -211 -105 -392t-287.5 -286.5t-392.5 -105.5t-393 105.5t-288 287t-105 391.5t105 391.5t287.5 286.5t393.5 105q210 0 392.5 -105t287.5 -286.5t105 -391.5zM1442 757q0 182 -90.5 338.5t-247.5 247.5t-339 91q-181 0 -338 -91t-247.5 -248t-90.5 -338
q0 -182 90.5 -339t248 -247.5t338.5 -90.5t338 90.5t247.5 247.5t90.5 339zM1150 924h-136q-21 89 -79.5 133.5t-155.5 44.5q-127 0 -204 -89.5t-77 -261.5q0 -168 74 -256t193 -88q100 0 165.5 61.5t83.5 184.5h136q-19 -164 -124 -261t-256 -97q-189 0 -302 121.5
t-113 336.5q0 226 117.5 352t298.5 126q167 0 267 -83.5t112 -223.5z" />
    <glyph glyph-name="ordfeminine" unicode="&#xaa;" horiz-adv-x="756" 
d="M628 810h-116l11 80q-57 -56 -102 -76t-96 -20q-108 0 -182 87t-74 233q0 169 95.5 281.5t216.5 112.5q52 0 97.5 -23.5t115.5 -97.5l13 104h119zM354 899q91 0 154.5 78.5t63.5 209.5q0 100 -49 157.5t-122 57.5q-85 0 -151.5 -80t-66.5 -206q0 -102 49 -159.5
t122 -57.5z" />
    <glyph glyph-name="guillemotleft" unicode="&#xab;" horiz-adv-x="870" 
d="M292 1088h152l-302 -550l142 -538h-136l-149 557zM752 1088h152l-302 -550l142 -538h-136l-149 557z" />
    <glyph glyph-name="logicalnot" unicode="&#xac;" horiz-adv-x="1241" 
d="M1127 1024v-577h-137l-1 440h-874v137h1012z" />
    <glyph glyph-name="registered" unicode="&#xae;" horiz-adv-x="1530" 
d="M1551 760q0 -212 -105 -393.5t-288 -287.5t-392 -106t-392 105.5t-288.5 287.5t-105.5 390q0 210 105.5 394t288 289t392.5 105t391.5 -104.5t287.5 -288.5t106 -391zM1442 759q0 180 -91 338.5t-247 249.5t-336 91q-181 0 -339.5 -91t-249 -249.5t-90.5 -340.5
q0 -181 90.5 -338t249.5 -248t339 -91q179 0 336 91.5t247.5 248t90.5 339.5zM439 1217h377q132 0 190 -26.5t94.5 -86.5t36.5 -140q0 -69 -26 -119q-20 -37 -87 -81q61 -30 82 -69.5t21 -135.5v-102q0 -72 32 -120l15 -24h-160q-15 56 -21 133l-7 111q-4 61 -19.5 86
t-44 36t-113.5 11h-227v-377h-143v904zM582 1087v-268h222q101 0 137 23q53 33 53 112q0 69 -38 101t-143 32h-231z" />
    <glyph glyph-name="overscore" unicode="&#xaf;" horiz-adv-x="1024" 
d="M72 1685h1048v-102h-1048v102z" />
    <glyph glyph-name="degree" unicode="&#xb0;" horiz-adv-x="819" 
d="M797 1164q0 -145 -101 -244.5t-245 -99.5t-244 100t-100 247q0 141 102.5 241t244.5 100t242.5 -100t100.5 -244zM678 1162q0 102 -65 171t-158 69q-94 0 -161.5 -69.5t-67.5 -168.5q0 -97 68 -167.5t160 -70.5t158 69t66 167z" />
    <glyph glyph-name="plusminus" unicode="&#xb1;" horiz-adv-x="1124" 
d="M493 913v434h137v-434h438v-137h-438v-434h-137v434h-437v137h437zM1068 161v-137h-1012v137h1012z" />
    <glyph glyph-name="twosuperior" unicode="&#xb2;" horiz-adv-x="680" 
d="M248 1241h-112q7 128 81.5 197.5t202.5 69.5q111 0 178.5 -59.5t67.5 -145.5q0 -58 -33.5 -114t-180.5 -192l-176 -164h352l-15 -100h-596l311 291q164 153 195 198t31 84q0 42 -39.5 74t-103.5 32q-73 0 -116 -43.5t-47 -127.5z" />
    <glyph glyph-name="threesuperior" unicode="&#xb3;" horiz-adv-x="680" 
d="M274 1305h-112q10 66 41.5 107.5t90 68.5t125.5 27q107 0 172.5 -58t65.5 -145q0 -54 -27 -93.5t-95 -72.5q59 -41 81 -80t22 -88q0 -104 -87.5 -180t-223.5 -76q-113 0 -186.5 63t-87.5 176h111q11 -73 47 -102q49 -39 120 -39q77 0 136 49.5t59 102.5q0 60 -51 96.5
t-171 36.5l13 93l31 -1q92 0 153 41q45 31 45 77q0 41 -37.5 71t-95.5 30q-56 0 -93 -27.5t-46 -76.5z" />
    <glyph glyph-name="acute" unicode="&#xb4;" horiz-adv-x="768" 
d="M581 1598h215l-339 -308h-138z" />
    <glyph glyph-name="mu1" unicode="&#xb5;" horiz-adv-x="1180" 
d="M-24 -398l204 1486h140l-81 -574q-11 -82 -11 -130q0 -115 74.5 -186t192.5 -71q99 0 183.5 59t123.5 144q25 55 45 201l78 557h140l-150 -1088h-140l16 118q-70 -74 -149 -108.5t-172 -34.5q-95 0 -165.5 34.5t-118.5 105.5l-70 -513h-140z" />
    <glyph glyph-name="paragraph" unicode="&#xb6;" horiz-adv-x="1155" 
d="M483 -231v937q-75 0 -111 8q-78 17 -141 67.5t-100 135t-37 188.5q0 189 116 308q97 100 299 100h513v-75h-84v-1669h-119v1669h-217v-1669h-119z" />
    <glyph glyph-name="middot" unicode="&#xb7;" horiz-adv-x="682" 
d="M600 870q43 0 72 -28.5t29 -71.5q0 -52 -40.5 -92t-94.5 -40q-42 0 -70.5 29t-28.5 71q0 52 40 92t93 40z" />
    <glyph glyph-name="cedilla" unicode="&#xb8;" horiz-adv-x="664" 
d="M178 0h88l-34 -118q24 3 39 3q44 0 72.5 -26t28.5 -65q0 -70 -68 -122t-185 -52q-88 0 -162 30l31 69q62 -20 118 -20q78 0 111 20.5t33 48.5q0 16 -15 27.5t-41 11.5q-24 0 -72 -9z" />
    <glyph glyph-name="onesuperior" unicode="&#xb9;" horiz-adv-x="680" 
d="M295 1489h203l-120 -756h-109l104 658h-122z" />
    <glyph glyph-name="ordmasculine" unicode="&#xba;" horiz-adv-x="756" 
d="M420 1508q120 0 202.5 -90t82.5 -236q0 -169 -101.5 -278.5t-250.5 -109.5q-122 0 -204 88.5t-82 230.5q0 170 104 282.5t249 112.5zM416 1401q-61 0 -116.5 -35.5t-87 -101t-31.5 -147.5q0 -99 52 -158.5t131 -59.5q103 0 166 83.5t63 200.5q0 101 -51 159.5t-126 58.5z
" />
    <glyph glyph-name="guillemotright" unicode="&#xbb;" horiz-adv-x="870" 
d="M533 0h-152l302 550l-141 538h135l149 -557zM73 0h-152l302 550l-141 538h135l149 -557z" />
    <glyph glyph-name="onequarter" unicode="&#xbc;" horiz-adv-x="1702" 
d="M224 1489h203l-120 -756h-109l104 658h-122zM227 -37l932 1545h112l-933 -1545h-111zM1490 790l-87 -544h122l-16 -100h-121l-24 -155h-108l24 155h-397l607 644v0zM1332 472l-213 -226h177z" />
    <glyph glyph-name="onehalf" unicode="&#xbd;" horiz-adv-x="1702" 
d="M224 1489h203l-120 -756h-109l104 658h-122zM204 -37l932 1545h112l-933 -1545h-111zM1118 508h-112q7 128 81.5 197.5t202.5 69.5q111 0 178.5 -59.5t67.5 -145.5q0 -58 -33.5 -114t-180.5 -192l-176 -164h352l-15 -100h-596l311 291q164 153 195 198t31 84
q0 42 -39.5 74t-103.5 32q-73 0 -116 -43.5t-47 -127.5z" />
    <glyph glyph-name="threequarters" unicode="&#xbe;" horiz-adv-x="1702" 
d="M257 1305h-112q10 66 41.5 107.5t90 68.5t125.5 27q107 0 172.5 -58t65.5 -145q0 -54 -27 -93.5t-95 -72.5q59 -41 81 -80t22 -88q0 -104 -87.5 -180t-223.5 -76q-113 0 -186.5 63t-87.5 176h111q11 -73 47 -102q49 -39 120 -39q77 0 136 49.5t59 102.5q0 60 -51 96.5
t-171 36.5l13 93l31 -1q92 0 153 41q45 31 45 77q0 41 -37.5 71t-95.5 30q-56 0 -93 -27.5t-46 -76.5zM376 -37l932 1545h112l-933 -1545h-111zM1575 790l-87 -544h122l-16 -100h-121l-24 -155h-108l24 155h-397l607 644v0zM1417 472l-213 -226h177z" />
    <glyph glyph-name="questiondown" unicode="&#xbf;" horiz-adv-x="1210" 
d="M648 894q-51 0 -87 35.5t-36 86.5q0 50 36 86t87 36q50 0 86 -36t36 -86t-36 -86t-86 -36zM799 10h136q-23 -215 -150 -325.5t-321 -110.5q-171 0 -275.5 91t-104.5 225q0 99 47 173.5t140 126.5q45 25 232 90q158 55 215 111q56 55 56 113q0 50 -50.5 89t-132.5 39
q-101 0 -165 -54.5t-83 -164.5h-136q14 167 114.5 259.5t270.5 92.5q144 0 230 -78.5t86 -191.5q0 -108 -77 -186q-77 -79 -363 -182q-140 -51 -183 -88q-63 -54 -63 -144q0 -84 65 -135t191 -51q283 0 321 301z" />
    <glyph glyph-name="Agrave" unicode="&#xc0;" horiz-adv-x="1515" 
d="M852 1471l493 -1471h-151l-161 481h-623l-275 -481h-164l847 1471h34zM805 1163l-314 -542h496zM801 1895l175 -308h-138l-252 308h215z" />
    <glyph glyph-name="Aacute" unicode="&#xc1;" horiz-adv-x="1515" 
d="M852 1471l493 -1471h-151l-161 481h-623l-275 -481h-164l847 1471h34zM805 1163l-314 -542h496zM954 1895h215l-339 -308h-138z" />
    <glyph glyph-name="Acircumflex" unicode="&#xc2;" horiz-adv-x="1515" 
d="M852 1471l493 -1471h-151l-161 481h-623l-275 -481h-164l847 1471h34zM805 1163l-314 -542h496zM799 1840h139l254 -257h-180l-155 152l-205 -152h-186z" />
    <glyph glyph-name="Atilde" unicode="&#xc3;" horiz-adv-x="1515" 
d="M852 1471l493 -1471h-151l-161 481h-623l-275 -481h-164l847 1471h34zM805 1163l-314 -542h496zM1143 1789l57 -97q-80 -52 -132.5 -70t-106.5 -18q-72 0 -143 37q-60 32 -77 37q-24 7 -50 7q-37 0 -70 -12.5t-99 -56.5l-52 102q105 97 238 97q64 0 148 -40
q80 -39 126 -39q58 0 161 53z" />
    <glyph glyph-name="Adieresis" unicode="&#xc4;" horiz-adv-x="1515" 
d="M852 1471l493 -1471h-151l-161 481h-623l-275 -481h-164l847 1471h34zM805 1163l-314 -542h496zM658 1816q43 0 72 -29t29 -71q0 -52 -40.5 -92t-94.5 -40q-42 0 -70.5 28.5t-28.5 71.5q0 52 40 92t93 40zM1066 1816q44 0 72.5 -29t28.5 -71q0 -52 -40.5 -92t-93.5 -40
q-43 0 -71.5 28.5t-28.5 71.5q0 52 40 92t93 40z" />
    <glyph glyph-name="Aring" unicode="&#xc5;" horiz-adv-x="1515" 
d="M852 1471l493 -1471h-151l-161 481h-623l-275 -481h-164l847 1471h34zM805 1163l-314 -542h496zM886 1989q80 0 133 -52.5t53 -131.5q0 -96 -74.5 -169.5t-173.5 -73.5q-78 0 -130.5 53t-52.5 131q0 96 74 169.5t171 73.5zM870 1888q-50 0 -88 -38t-38 -87q0 -41 27 -68
t68 -27q51 0 89 38t38 87q0 41 -27.5 68t-68.5 27z" />
    <glyph glyph-name="AE" unicode="&#xc6;" horiz-adv-x="2032" 
d="M1743 0h-832l65 478h-504l-346 -478h-159l1059 1471h895l-21 -143h-661l-65 -482h661l-19 -141h-662l-75 -564h680zM1092 1344l-519 -723h423z" />
    <glyph glyph-name="Ccedilla" unicode="&#xc7;" horiz-adv-x="1665" 
d="M1576 1268l-89 -123q-234 220 -533 220q-195 0 -364.5 -95t-265 -256t-95.5 -346q0 -165 73.5 -293t212.5 -200.5t318 -72.5q273 0 509 173l82 -117q-175 -115 -301 -155t-291 -40q-305 0 -497 153q-255 205 -255 547q0 353 255 599t634 246q173 0 315 -54.5t292 -185.5z
M715 0h88l-34 -118q24 3 39 3q44 0 72.5 -26t28.5 -65q0 -70 -68 -122t-185 -52q-88 0 -162 30l31 69q62 -20 118 -20q78 0 111 20.5t33 48.5q0 16 -15 27.5t-41 11.5q-24 0 -72 -9z" />
    <glyph glyph-name="Egrave" unicode="&#xc8;" horiz-adv-x="1098" 
d="M1056 1471l-21 -143h-662l-65 -482h662l-19 -141h-662l-75 -564h662l-17 -141h-811l197 1471h811zM628 1895l175 -308h-138l-252 308h215z" />
    <glyph glyph-name="Eacute" unicode="&#xc9;" horiz-adv-x="1098" 
d="M1056 1471l-21 -143h-662l-65 -482h662l-19 -141h-662l-75 -564h662l-17 -141h-811l197 1471h811zM781 1895h215l-339 -308h-138z" />
    <glyph glyph-name="Ecircumflex" unicode="&#xca;" horiz-adv-x="1098" 
d="M1056 1471l-21 -143h-662l-65 -482h662l-19 -141h-662l-75 -564h662l-17 -141h-811l197 1471h811zM627 1840h139l254 -257h-180l-155 152l-205 -152h-186z" />
    <glyph glyph-name="Edieresis" unicode="&#xcb;" horiz-adv-x="1098" 
d="M1056 1471l-21 -143h-662l-65 -482h662l-19 -141h-662l-75 -564h662l-17 -141h-811l197 1471h811zM485 1816q43 0 72 -29t29 -71q0 -52 -40.5 -92t-94.5 -40q-42 0 -70.5 28.5t-28.5 71.5q0 52 40 92t93 40zM893 1816q44 0 72.5 -29t28.5 -71q0 -52 -40.5 -92t-93.5 -40
q-43 0 -71.5 28.5t-28.5 71.5q0 52 40 92t93 40z" />
    <glyph glyph-name="Igrave" unicode="&#xcc;" horiz-adv-x="463" 
d="M238 1471h148l-199 -1471h-148zM274 1895l175 -308h-138l-252 308h215z" />
    <glyph glyph-name="Iacute" unicode="&#xcd;" horiz-adv-x="463" 
d="M238 1471h148l-199 -1471h-148zM464 1895h215l-339 -308h-138z" />
    <glyph glyph-name="Icircumflex" unicode="&#xce;" horiz-adv-x="463" 
d="M238 1471h148l-199 -1471h-148zM310 1840h139l254 -257h-180l-155 152l-205 -152h-186z" />
    <glyph glyph-name="Idieresis" unicode="&#xcf;" horiz-adv-x="463" 
d="M238 1471h148l-199 -1471h-148zM169 1816q43 0 72 -29t29 -71q0 -52 -40.5 -92t-94.5 -40q-42 0 -70.5 28.5t-28.5 71.5q0 52 40 92t93 40zM577 1816q44 0 72.5 -29t28.5 -71q0 -52 -40.5 -92t-93.5 -40q-43 0 -71.5 28.5t-28.5 71.5q0 52 40 92t93 40z" />
    <glyph glyph-name="Eth" unicode="&#xd0;" horiz-adv-x="1618" 
d="M230 669h-186l18 132h185l89 670h316q299 0 459.5 -78.5t258.5 -243t98 -375.5q0 -225 -110.5 -416t-272 -274.5t-481.5 -83.5h-463zM375 669l-70 -526h129q299 0 396 16q147 24 248.5 94.5t173.5 211t72 306.5q0 175 -82 306t-223 196q-122 56 -410 56h-146l-70 -528
h358l-18 -132h-358z" />
    <glyph glyph-name="Ntilde" unicode="&#xd1;" horiz-adv-x="1515" 
d="M1265 1471h144l-199 -1471h-32l-828 1140l-154 -1140h-146l198 1471h32l830 -1142zM1143 1789l57 -97q-80 -52 -132.5 -70t-106.5 -18q-72 0 -143 37q-60 32 -77 37q-24 7 -50 7q-37 0 -70 -12.5t-99 -56.5l-52 102q105 97 238 97q64 0 148 -40q80 -39 126 -39
q58 0 161 53z" />
    <glyph glyph-name="Ograve" unicode="&#xd2;" horiz-adv-x="1780" 
d="M956 1508q297 0 494.5 -195t197.5 -493q0 -363 -250.5 -610t-624.5 -247q-318 0 -509 190t-191 497q0 237 114.5 435t317 310.5t451.5 112.5zM953 1369q-211 0 -376.5 -92t-262 -261t-96.5 -360q0 -162 70 -290.5t193.5 -196.5t290.5 -68q198 0 367 95.5t265.5 265
t96.5 366.5q0 261 -183 414q-152 127 -365 127zM934 1895l175 -308h-138l-252 308h215z" />
    <glyph glyph-name="Oacute" unicode="&#xd3;" horiz-adv-x="1780" 
d="M956 1508q297 0 494.5 -195t197.5 -493q0 -363 -250.5 -610t-624.5 -247q-318 0 -509 190t-191 497q0 237 114.5 435t317 310.5t451.5 112.5zM953 1369q-211 0 -376.5 -92t-262 -261t-96.5 -360q0 -162 70 -290.5t193.5 -196.5t290.5 -68q198 0 367 95.5t265.5 265
t96.5 366.5q0 261 -183 414q-152 127 -365 127zM1087 1895h215l-339 -308h-138z" />
    <glyph glyph-name="Ocircumflex" unicode="&#xd4;" horiz-adv-x="1780" 
d="M956 1508q297 0 494.5 -195t197.5 -493q0 -363 -250.5 -610t-624.5 -247q-318 0 -509 190t-191 497q0 237 114.5 435t317 310.5t451.5 112.5zM953 1369q-211 0 -376.5 -92t-262 -261t-96.5 -360q0 -162 70 -290.5t193.5 -196.5t290.5 -68q198 0 367 95.5t265.5 265
t96.5 366.5q0 261 -183 414q-152 127 -365 127zM932 1840h139l254 -257h-180l-155 152l-205 -152h-186z" />
    <glyph glyph-name="Otilde" unicode="&#xd5;" horiz-adv-x="1780" 
d="M956 1508q297 0 494.5 -195t197.5 -493q0 -363 -250.5 -610t-624.5 -247q-318 0 -509 190t-191 497q0 237 114.5 435t317 310.5t451.5 112.5zM953 1369q-211 0 -376.5 -92t-262 -261t-96.5 -360q0 -162 70 -290.5t193.5 -196.5t290.5 -68q198 0 367 95.5t265.5 265
t96.5 366.5q0 261 -183 414q-152 127 -365 127zM1276 1789l57 -97q-80 -52 -132.5 -70t-106.5 -18q-72 0 -143 37q-60 32 -77 37q-24 7 -50 7q-37 0 -70 -12.5t-99 -56.5l-52 102q105 97 238 97q64 0 148 -40q80 -39 126 -39q58 0 161 53z" />
    <glyph glyph-name="Odieresis" unicode="&#xd6;" horiz-adv-x="1780" 
d="M956 1508q297 0 494.5 -195t197.5 -493q0 -363 -250.5 -610t-624.5 -247q-318 0 -509 190t-191 497q0 237 114.5 435t317 310.5t451.5 112.5zM953 1369q-211 0 -376.5 -92t-262 -261t-96.5 -360q0 -162 70 -290.5t193.5 -196.5t290.5 -68q198 0 367 95.5t265.5 265
t96.5 366.5q0 261 -183 414q-152 127 -365 127zM791 1816q43 0 72 -29t29 -71q0 -52 -40.5 -92t-94.5 -40q-42 0 -70.5 28.5t-28.5 71.5q0 52 40 92t93 40zM1199 1816q44 0 72.5 -29t28.5 -71q0 -52 -40.5 -92t-93.5 -40q-43 0 -71.5 28.5t-28.5 71.5q0 52 40 92t93 40z" />
    <glyph glyph-name="multiply" unicode="&#xd7;" horiz-adv-x="1241" 
d="M712 735l332 -331l-92 -92l-331 331l-332 -331l-92 92l331 331l-331 332l92 92l332 -332l331 332l92 -92z" />
    <glyph glyph-name="Oslash" unicode="&#xd8;" horiz-adv-x="1778" 
d="M1460 1301q186 -191 186 -481q0 -362 -250.5 -609.5t-622.5 -247.5q-233 0 -398 100l-132 -151l-98 88l126 144q-200 194 -200 506q0 236 113.5 433t316 311t441.5 114q235 0 416 -121l121 139l102 -87zM366 254l898 1027q-137 88 -330 88q-195 0 -361.5 -94
t-261.5 -261.5t-95 -357.5q0 -118 40 -223t110 -179zM1366 1194l-894 -1021q132 -72 299 -72q197 0 366.5 95.5t265.5 265t96 366.5q0 217 -133 366z" />
    <glyph glyph-name="Ugrave" unicode="&#xd9;" horiz-adv-x="1341" 
d="M233 1471h145l-111 -842q-22 -168 -22 -239q0 -138 79 -212.5t223 -74.5q101 0 179 34t132.5 99t77.5 150q40 148 69 374l92 711h145l-98 -743l-24 -182q-21 -127 -50 -216.5t-76 -158.5t-107 -113t-145.5 -69.5t-191.5 -25.5q-217 0 -335 110t-118 292q0 51 6 114
l22 172zM714 1895l175 -308h-138l-252 308h215z" />
    <glyph glyph-name="Uacute" unicode="&#xda;" horiz-adv-x="1341" 
d="M233 1471h145l-111 -842q-22 -168 -22 -239q0 -138 79 -212.5t223 -74.5q101 0 179 34t132.5 99t77.5 150q40 148 69 374l92 711h145l-98 -743l-24 -182q-21 -127 -50 -216.5t-76 -158.5t-107 -113t-145.5 -69.5t-191.5 -25.5q-217 0 -335 110t-118 292q0 51 6 114
l22 172zM868 1895h215l-339 -308h-138z" />
    <glyph glyph-name="Ucircumflex" unicode="&#xdb;" horiz-adv-x="1341" 
d="M233 1471h145l-111 -842q-22 -168 -22 -239q0 -138 79 -212.5t223 -74.5q101 0 179 34t132.5 99t77.5 150q40 148 69 374l92 711h145l-98 -743l-24 -182q-21 -127 -50 -216.5t-76 -158.5t-107 -113t-145.5 -69.5t-191.5 -25.5q-217 0 -335 110t-118 292q0 51 6 114
l22 172zM713 1840h139l254 -257h-180l-155 152l-205 -152h-186z" />
    <glyph glyph-name="Udieresis" unicode="&#xdc;" horiz-adv-x="1341" 
d="M233 1471h145l-111 -842q-22 -168 -22 -239q0 -138 79 -212.5t223 -74.5q101 0 179 34t132.5 99t77.5 150q40 148 69 374l92 711h145l-98 -743l-24 -182q-21 -127 -50 -216.5t-76 -158.5t-107 -113t-145.5 -69.5t-191.5 -25.5q-217 0 -335 110t-118 292q0 51 6 114
l22 172zM571 1816q43 0 72 -29t29 -71q0 -52 -40.5 -92t-94.5 -40q-42 0 -70.5 28.5t-28.5 71.5q0 52 40 92t93 40zM979 1816q44 0 72.5 -29t28.5 -71q0 -52 -40.5 -92t-93.5 -40q-43 0 -71.5 28.5t-28.5 71.5q0 52 40 92t93 40z" />
    <glyph glyph-name="Yacute" unicode="&#xdd;" horiz-adv-x="1212" 
d="M83 1471h154l315 -668l531 668h178l-652 -819l-89 -652h-144l89 660zM803 1895h215l-339 -308h-138z" />
    <glyph glyph-name="Thorn" unicode="&#xde;" horiz-adv-x="1212" 
d="M262 1471h147l-47 -348h254q199 0 285 -37t138.5 -118t52.5 -192q0 -146 -82.5 -253.5t-206.5 -146.5q-91 -28 -321 -28h-223l-47 -348h-147zM345 981l-68 -489h204q208 0 287.5 28.5t128 98t48.5 155.5q0 69 -33.5 118t-91.5 69t-212 20h-263z" />
    <glyph glyph-name="germandbls" unicode="&#xdf;" horiz-adv-x="1135" 
d="M185 0h-141l141 993q31 216 90.5 319.5t164 163.5t229.5 60q147 0 241.5 -91.5t94.5 -229.5q0 -141 -71.5 -240.5t-212.5 -149.5q125 -59 187 -153.5t62 -211.5q0 -192 -124 -340t-335 -148q-125 0 -211 53l19 136q104 -55 186 -55q116 0 220.5 91t104.5 247
q0 261 -345 317l22 151q111 0 194.5 39.5t127 108t43.5 147.5q0 82 -57 136.5t-150 54.5q-99 0 -177.5 -55t-116.5 -142q-24 -56 -46 -208z" />
    <glyph glyph-name="agrave" unicode="&#xe0;" horiz-adv-x="1399" 
d="M1121 0h-141l21 164q-189 -192 -433 -192q-222 0 -365 143t-143 368q0 260 185.5 446.5t436.5 186.5q136 0 238.5 -57t175.5 -178l25 207h145zM583 100q135 0 246 63.5t176 182.5t65 259q0 169 -107 275t-278 106q-201 0 -344 -145t-143 -356q0 -173 107 -279t278 -106z
M743 1598l175 -308h-138l-252 308h215z" />
    <glyph glyph-name="aacute" unicode="&#xe1;" horiz-adv-x="1399" 
d="M1121 0h-141l21 164q-189 -192 -433 -192q-222 0 -365 143t-143 368q0 260 185.5 446.5t436.5 186.5q136 0 238.5 -57t175.5 -178l25 207h145zM583 100q135 0 246 63.5t176 182.5t65 259q0 169 -107 275t-278 106q-201 0 -344 -145t-143 -356q0 -173 107 -279t278 -106z
M896 1598h215l-339 -308h-138z" />
    <glyph glyph-name="acircumflex" unicode="&#xe2;" horiz-adv-x="1399" 
d="M1121 0h-141l21 164q-189 -192 -433 -192q-222 0 -365 143t-143 368q0 260 185.5 446.5t436.5 186.5q136 0 238.5 -57t175.5 -178l25 207h145zM583 100q135 0 246 63.5t176 182.5t65 259q0 169 -107 275t-278 106q-201 0 -344 -145t-143 -356q0 -173 107 -279t278 -106z
M742 1542h139l254 -257h-180l-155 152l-205 -152h-186z" />
    <glyph glyph-name="atilde" unicode="&#xe3;" horiz-adv-x="1399" 
d="M1121 0h-141l21 164q-189 -192 -433 -192q-222 0 -365 143t-143 368q0 260 185.5 446.5t436.5 186.5q136 0 238.5 -57t175.5 -178l25 207h145zM583 100q135 0 246 63.5t176 182.5t65 259q0 169 -107 275t-278 106q-201 0 -344 -145t-143 -356q0 -173 107 -279t278 -106z
M1085 1492l57 -97q-80 -52 -132.5 -70t-106.5 -18q-72 0 -143 37q-60 32 -77 37q-24 7 -50 7q-37 0 -70 -12.5t-99 -56.5l-52 102q105 97 238 97q64 0 148 -40q80 -39 126 -39q58 0 161 53z" />
    <glyph glyph-name="adieresis" unicode="&#xe4;" horiz-adv-x="1399" 
d="M1121 0h-141l21 164q-189 -192 -433 -192q-222 0 -365 143t-143 368q0 260 185.5 446.5t436.5 186.5q136 0 238.5 -57t175.5 -178l25 207h145zM583 100q135 0 246 63.5t176 182.5t65 259q0 169 -107 275t-278 106q-201 0 -344 -145t-143 -356q0 -173 107 -279t278 -106z
M600 1518q43 0 72 -29t29 -71q0 -52 -40.5 -92t-94.5 -40q-42 0 -70.5 28.5t-28.5 71.5q0 52 40 92t93 40zM1008 1518q44 0 72.5 -29t28.5 -71q0 -52 -40.5 -92t-93.5 -40q-43 0 -71.5 28.5t-28.5 71.5q0 52 40 92t93 40z" />
    <glyph glyph-name="aring" unicode="&#xe5;" horiz-adv-x="1399" 
d="M1121 0h-141l21 164q-189 -192 -433 -192q-222 0 -365 143t-143 368q0 260 185.5 446.5t436.5 186.5q136 0 238.5 -57t175.5 -178l25 207h145zM583 100q135 0 246 63.5t176 182.5t65 259q0 169 -107 275t-278 106q-201 0 -344 -145t-143 -356q0 -173 107 -279t278 -106z
M828 1691q80 0 133 -52.5t53 -131.5q0 -96 -74.5 -169.5t-173.5 -73.5q-78 0 -130.5 53t-52.5 131q0 96 74 169.5t171 73.5zM812 1590q-50 0 -88 -38t-38 -87q0 -41 27 -68t68 -27q51 0 89 38t38 87q0 41 -27.5 68t-68.5 27z" />
    <glyph glyph-name="ae" unicode="&#xe6;" horiz-adv-x="2370" 
d="M1149 1088h125l-22 -178q91 103 206.5 154.5t247.5 51.5q223 0 365 -140.5t142 -363.5q0 -45 -8 -96h-985l-3 -47q0 -98 51 -186t139 -135t205 -47q223 0 376 174l107 -79q-180 -224 -498 -224q-156 0 -262 56.5t-180 171.5l-27 -200h-124l21 170q-103 -104 -213.5 -151
t-243.5 -47q-229 0 -362 139q-148 153 -148 382q0 255 184.5 439t436.5 184q160 0 275 -70q86 -53 165 -177zM683 987q-228 0 -368 -169q-120 -143 -120 -331q0 -172 109 -278.5t289 -106.5q134 0 247.5 64t179 180.5t65.5 241.5q0 108 -53 203t-142.5 145.5t-206.5 50.5z
M2081 635q-5 149 -102.5 249.5t-270.5 100.5q-166 0 -290 -93.5t-173 -256.5h836z" />
    <glyph glyph-name="ccedilla" unicode="&#xe7;" horiz-adv-x="1325" 
d="M1198 853l-115 -67q-121 196 -370 196q-144 0 -263 -64t-186 -178t-67 -244q0 -115 50 -206t140.5 -140t213.5 -49q126 0 240.5 50t178.5 129l115 -81q-108 -118 -234.5 -172.5t-293.5 -54.5q-258 0 -402.5 140.5t-144.5 374.5q0 260 189.5 444.5t464.5 184.5
q165 0 291 -69.5t193 -193.5zM533 0h88l-34 -118q24 3 39 3q44 0 72.5 -26t28.5 -65q0 -70 -68 -122t-185 -52q-88 0 -162 30l31 69q62 -20 118 -20q78 0 111 20.5t33 48.5q0 16 -15 27.5t-41 11.5q-24 0 -72 -9z" />
    <glyph glyph-name="egrave" unicode="&#xe8;" horiz-adv-x="1331" 
d="M1166 516h-970q-3 -194 101 -305t277 -111q115 0 213 47t162 132l104 -85q-79 -101 -206.5 -161.5t-275.5 -60.5q-256 0 -384.5 158.5t-128.5 356.5q0 162 86.5 312t231.5 233.5t314 83.5q209 0 346 -141.5t137 -360.5q0 -40 -7 -98zM1038 637q-6 154 -105 249.5
t-249 95.5q-163 0 -287.5 -92t-176.5 -253h818zM709 1598l175 -308h-138l-252 308h215z" />
    <glyph glyph-name="eacute" unicode="&#xe9;" horiz-adv-x="1331" 
d="M1166 516h-970q-3 -194 101 -305t277 -111q115 0 213 47t162 132l104 -85q-79 -101 -206.5 -161.5t-275.5 -60.5q-256 0 -384.5 158.5t-128.5 356.5q0 162 86.5 312t231.5 233.5t314 83.5q209 0 346 -141.5t137 -360.5q0 -40 -7 -98zM1038 637q-6 154 -105 249.5
t-249 95.5q-163 0 -287.5 -92t-176.5 -253h818zM862 1598h215l-339 -308h-138z" />
    <glyph glyph-name="ecircumflex" unicode="&#xea;" horiz-adv-x="1331" 
d="M1166 516h-970q-3 -194 101 -305t277 -111q115 0 213 47t162 132l104 -85q-79 -101 -206.5 -161.5t-275.5 -60.5q-256 0 -384.5 158.5t-128.5 356.5q0 162 86.5 312t231.5 233.5t314 83.5q209 0 346 -141.5t137 -360.5q0 -40 -7 -98zM1038 637q-6 154 -105 249.5
t-249 95.5q-163 0 -287.5 -92t-176.5 -253h818zM707 1542h139l254 -257h-180l-155 152l-205 -152h-186z" />
    <glyph glyph-name="edieresis" unicode="&#xeb;" horiz-adv-x="1331" 
d="M1166 516h-970q-3 -194 101 -305t277 -111q115 0 213 47t162 132l104 -85q-79 -101 -206.5 -161.5t-275.5 -60.5q-256 0 -384.5 158.5t-128.5 356.5q0 162 86.5 312t231.5 233.5t314 83.5q209 0 346 -141.5t137 -360.5q0 -40 -7 -98zM1038 637q-6 154 -105 249.5
t-249 95.5q-163 0 -287.5 -92t-176.5 -253h818zM566 1518q43 0 72 -29t29 -71q0 -52 -40.5 -92t-94.5 -40q-42 0 -70.5 28.5t-28.5 71.5q0 52 40 92t93 40zM974 1518q44 0 72.5 -29t28.5 -71q0 -52 -40.5 -92t-93.5 -40q-43 0 -71.5 28.5t-28.5 71.5q0 52 40 92t93 40z" />
    <glyph glyph-name="igrave" unicode="&#xec;" horiz-adv-x="410" 
d="M164 1088h133l-145 -1088h-138zM248 1598l175 -308h-138l-252 308h215z" />
    <glyph glyph-name="iacute" unicode="&#xed;" horiz-adv-x="410" 
d="M164 1088h133l-145 -1088h-138zM402 1598h215l-339 -308h-138z" />
    <glyph glyph-name="icircumflex" unicode="&#xee;" horiz-adv-x="410" 
d="M164 1088h133l-145 -1088h-138zM247 1542h139l254 -257h-180l-155 152l-205 -152h-186z" />
    <glyph glyph-name="idieresis" unicode="&#xef;" horiz-adv-x="410" 
d="M164 1088h133l-145 -1088h-138zM106 1518q43 0 72 -29t29 -71q0 -52 -40.5 -92t-94.5 -40q-42 0 -70.5 28.5t-28.5 71.5q0 52 40 92t93 40zM514 1518q44 0 72.5 -29t28.5 -71q0 -52 -40.5 -92t-93.5 -40q-43 0 -71.5 28.5t-28.5 71.5q0 52 40 92t93 40z" />
    <glyph glyph-name="eth" unicode="&#xf0;" horiz-adv-x="1341" 
d="M471 1508h189q73 -40 132 -89l183 68l35 -100l-126 -47q142 -140 221 -320t79 -370q0 -195 -83.5 -346t-233.5 -241.5t-313 -90.5q-138 0 -249 64.5t-178 187.5t-67 263q0 154 87 303.5t232 237.5t292 88q168 0 283 -104q-75 156 -195 280l-228 -86l-39 101l177 65
q-93 71 -198 136zM694 975q-127 0 -244.5 -67.5t-185 -182t-67.5 -239.5q0 -107 48.5 -196.5t130.5 -136.5t184 -47q116 0 231.5 69.5t182 187.5t66.5 251q0 161 -98.5 261t-247.5 100z" />
    <glyph glyph-name="ntilde" unicode="&#xf1;" horiz-adv-x="1249" 
d="M192 1088h134l-21 -167q165 195 384 195q168 0 271 -103.5t103 -278.5q0 -70 -22 -235l-68 -499h-138l67 499q22 160 22 236q0 114 -69 184t-181 70q-110 0 -204.5 -56.5t-146.5 -154t-80 -308.5l-65 -470h-137zM1011 1492l57 -97q-80 -52 -132.5 -70t-106.5 -18
q-72 0 -143 37q-60 32 -77 37q-24 7 -50 7q-37 0 -70 -12.5t-99 -56.5l-52 102q105 97 238 97q64 0 148 -40q80 -39 126 -39q58 0 161 53z" />
    <glyph glyph-name="ograve" unicode="&#xf2;" horiz-adv-x="1341" 
d="M680 1116q139 0 255 -66.5t181 -185t65 -268.5q0 -171 -83 -317.5t-223 -226.5t-317 -80q-219 0 -360.5 143.5t-141.5 365.5q0 174 83 321t227.5 230.5t313.5 83.5zM677 983q-130 0 -244.5 -65t-176 -178.5t-61.5 -250.5q0 -172 106 -279.5t274 -107.5q131 0 237.5 62.5
t169.5 180.5t63 253q0 113 -47 200.5t-133 136t-188 48.5zM714 1598l175 -308h-138l-252 308h215z" />
    <glyph glyph-name="oacute" unicode="&#xf3;" horiz-adv-x="1341" 
d="M680 1116q139 0 255 -66.5t181 -185t65 -268.5q0 -171 -83 -317.5t-223 -226.5t-317 -80q-219 0 -360.5 143.5t-141.5 365.5q0 174 83 321t227.5 230.5t313.5 83.5zM677 983q-130 0 -244.5 -65t-176 -178.5t-61.5 -250.5q0 -172 106 -279.5t274 -107.5q131 0 237.5 62.5
t169.5 180.5t63 253q0 113 -47 200.5t-133 136t-188 48.5zM868 1598h215l-339 -308h-138z" />
    <glyph glyph-name="ocircumflex" unicode="&#xf4;" horiz-adv-x="1341" 
d="M680 1116q139 0 255 -66.5t181 -185t65 -268.5q0 -171 -83 -317.5t-223 -226.5t-317 -80q-219 0 -360.5 143.5t-141.5 365.5q0 174 83 321t227.5 230.5t313.5 83.5zM677 983q-130 0 -244.5 -65t-176 -178.5t-61.5 -250.5q0 -172 106 -279.5t274 -107.5q131 0 237.5 62.5
t169.5 180.5t63 253q0 113 -47 200.5t-133 136t-188 48.5zM713 1542h139l254 -257h-180l-155 152l-205 -152h-186z" />
    <glyph glyph-name="otilde" unicode="&#xf5;" horiz-adv-x="1341" 
d="M680 1116q139 0 255 -66.5t181 -185t65 -268.5q0 -171 -83 -317.5t-223 -226.5t-317 -80q-219 0 -360.5 143.5t-141.5 365.5q0 174 83 321t227.5 230.5t313.5 83.5zM677 983q-130 0 -244.5 -65t-176 -178.5t-61.5 -250.5q0 -172 106 -279.5t274 -107.5q131 0 237.5 62.5
t169.5 180.5t63 253q0 113 -47 200.5t-133 136t-188 48.5zM1056 1492l57 -97q-80 -52 -132.5 -70t-106.5 -18q-72 0 -143 37q-60 32 -77 37q-24 7 -50 7q-37 0 -70 -12.5t-99 -56.5l-52 102q105 97 238 97q64 0 148 -40q80 -39 126 -39q58 0 161 53z" />
    <glyph glyph-name="odieresis" unicode="&#xf6;" horiz-adv-x="1341" 
d="M680 1116q139 0 255 -66.5t181 -185t65 -268.5q0 -171 -83 -317.5t-223 -226.5t-317 -80q-219 0 -360.5 143.5t-141.5 365.5q0 174 83 321t227.5 230.5t313.5 83.5zM677 983q-130 0 -244.5 -65t-176 -178.5t-61.5 -250.5q0 -172 106 -279.5t274 -107.5q131 0 237.5 62.5
t169.5 180.5t63 253q0 113 -47 200.5t-133 136t-188 48.5zM571 1518q43 0 72 -29t29 -71q0 -52 -40.5 -92t-94.5 -40q-42 0 -70.5 28.5t-28.5 71.5q0 52 40 92t93 40zM979 1518q44 0 72.5 -29t28.5 -71q0 -52 -40.5 -92t-93.5 -40q-43 0 -71.5 28.5t-28.5 71.5q0 52 40 92
t93 40z" />
    <glyph glyph-name="divide" unicode="&#xf7;" horiz-adv-x="1124" 
d="M461 1207h201v-202h-201v202zM56 804h1012v-137h-1012v137zM461 466h201v-205h-201v205z" />
    <glyph glyph-name="oslash" unicode="&#xf8;" horiz-adv-x="1337" 
d="M1071 931q108 -143 108 -335q0 -171 -82.5 -317.5t-223 -226.5t-316.5 -80q-156 0 -264 66l-129 -149l-101 87l127 146q-136 146 -136 359q0 173 82.5 319.5t226.5 231t307 84.5q178 0 305 -92l121 139l103 -84zM282 228l604 694q-95 61 -219 61t-238 -66t-175 -179
t-61 -249q0 -153 89 -261zM980 827l-594 -682q85 -43 187 -43q131 0 237.5 62.5t169.5 180.5t63 252q0 128 -63 230z" />
    <glyph glyph-name="ugrave" unicode="&#xf9;" horiz-adv-x="1245" 
d="M188 1088h140l-63 -455q-26 -193 -26 -248q0 -125 83.5 -204t220.5 -79q114 0 198 60t120 157q18 49 43 225l78 544h137l-56 -412q-40 -295 -85 -419.5t-160.5 -204.5t-281.5 -80q-189 0 -309.5 115.5t-120.5 288.5q0 69 11 161l10 96l5 41zM666 1598l175 -308h-138
l-252 308h215z" />
    <glyph glyph-name="uacute" unicode="&#xfa;" horiz-adv-x="1245" 
d="M188 1088h140l-63 -455q-26 -193 -26 -248q0 -125 83.5 -204t220.5 -79q114 0 198 60t120 157q18 49 43 225l78 544h137l-56 -412q-40 -295 -85 -419.5t-160.5 -204.5t-281.5 -80q-189 0 -309.5 115.5t-120.5 288.5q0 69 11 161l10 96l5 41zM820 1598h215l-339 -308h-138
z" />
    <glyph glyph-name="ucircumflex" unicode="&#xfb;" horiz-adv-x="1245" 
d="M188 1088h140l-63 -455q-26 -193 -26 -248q0 -125 83.5 -204t220.5 -79q114 0 198 60t120 157q18 49 43 225l78 544h137l-56 -412q-40 -295 -85 -419.5t-160.5 -204.5t-281.5 -80q-189 0 -309.5 115.5t-120.5 288.5q0 69 11 161l10 96l5 41zM665 1542h139l254 -257h-180
l-155 152l-205 -152h-186z" />
    <glyph glyph-name="udieresis" unicode="&#xfc;" horiz-adv-x="1245" 
d="M188 1088h140l-63 -455q-26 -193 -26 -248q0 -125 83.5 -204t220.5 -79q114 0 198 60t120 157q18 49 43 225l78 544h137l-56 -412q-40 -295 -85 -419.5t-160.5 -204.5t-281.5 -80q-189 0 -309.5 115.5t-120.5 288.5q0 69 11 161l10 96l5 41zM523 1518q43 0 72 -29t29 -71
q0 -52 -40.5 -92t-94.5 -40q-42 0 -70.5 28.5t-28.5 71.5q0 52 40 92t93 40zM931 1518q44 0 72.5 -29t28.5 -71q0 -52 -40.5 -92t-93.5 -40q-43 0 -71.5 28.5t-28.5 71.5q0 52 40 92t93 40z" />
    <glyph glyph-name="yacute" unicode="&#xfd;" horiz-adv-x="1098" 
d="M47 1088h144l282 -803l466 803h155l-862 -1486h-157l308 531zM746 1598h215l-339 -308h-138z" />
    <glyph glyph-name="thorn" unicode="&#xfe;" horiz-adv-x="1397" 
d="M260 1508h142l-77 -583q189 191 432 191q223 0 365.5 -143t142.5 -368q0 -260 -185 -446.5t-436 -186.5q-136 0 -239 57.5t-175 178.5l-79 -606h-145zM742 988q-134 0 -245.5 -63.5t-176.5 -182.5t-65 -259q0 -169 107.5 -275t277.5 -106q201 0 344 145t143 356
q0 173 -106.5 279t-278.5 106z" />
    <glyph glyph-name="ydieresis" unicode="&#xff;" horiz-adv-x="1098" 
d="M47 1088h144l282 -803l466 803h155l-862 -1486h-157l308 531zM450 1518q43 0 72 -29t29 -71q0 -52 -40.5 -92t-94.5 -40q-42 0 -70.5 28.5t-28.5 71.5q0 52 40 92t93 40zM858 1518q44 0 72.5 -29t28.5 -71q0 -52 -40.5 -92t-93.5 -40q-43 0 -71.5 28.5t-28.5 71.5
q0 52 40 92t93 40z" />
    <glyph glyph-name="Amacron" unicode="&#x100;" horiz-adv-x="1515" 
d="M852 1471l493 -1471h-151l-161 481h-623l-275 -481h-164l847 1471h34zM805 1163l-314 -542h496zM488 1776h690l-17 -119h-690z" />
    <glyph glyph-name="amacron" unicode="&#x101;" horiz-adv-x="1399" 
d="M1121 0h-141l21 164q-189 -192 -433 -192q-222 0 -365 143t-143 368q0 260 185.5 446.5t436.5 186.5q136 0 238.5 -57t175.5 -178l25 207h145zM583 100q135 0 246 63.5t176 182.5t65 259q0 169 -107 275t-278 106q-201 0 -344 -145t-143 -356q0 -173 107 -279t278 -106z
M418 1479h690l-17 -119h-690z" />
    <glyph glyph-name="Abreve" unicode="&#x102;" horiz-adv-x="1515" 
d="M852 1471l493 -1471h-151l-161 481h-623l-275 -481h-164l847 1471h34zM805 1163l-314 -542h496zM525 1822h132q53 -104 209 -104q82 0 135 22.5t105 81.5h128q-35 -90 -134.5 -150.5t-247.5 -60.5q-147 0 -231 60t-96 151z" />
    <glyph glyph-name="abreve" unicode="&#x103;" horiz-adv-x="1399" 
d="M1121 0h-141l21 164q-189 -192 -433 -192q-222 0 -365 143t-143 368q0 260 185.5 446.5t436.5 186.5q136 0 238.5 -57t175.5 -178l25 207h145zM583 100q135 0 246 63.5t176 182.5t65 259q0 169 -107 275t-278 106q-201 0 -344 -145t-143 -356q0 -173 107 -279t278 -106z
M430 1525h132q53 -104 209 -104q82 0 135 22.5t105 81.5h128q-35 -90 -134.5 -150.5t-247.5 -60.5q-147 0 -231 60t-96 151z" />
    <glyph glyph-name="Aogonek" unicode="&#x104;" horiz-adv-x="1515" 
d="M852 1471l493 -1471h-151l-161 481h-623l-275 -481h-164l847 1471h34zM805 1163l-314 -542h496zM1251 0h109q-149 -113 -149 -204q0 -44 32 -71.5t99 -27.5q30 0 70 5l-21 -85q-43 -10 -86 -10q-104 0 -154.5 45t-50.5 114q0 58 40 123.5t111 110.5z" />
    <glyph glyph-name="aogonek" unicode="&#x105;" horiz-adv-x="1399" 
d="M1121 0h-141l21 164q-189 -192 -433 -192q-222 0 -365 143t-143 368q0 260 185.5 446.5t436.5 186.5q136 0 238.5 -57t175.5 -178l25 207h145zM583 100q135 0 246 63.5t176 182.5t65 259q0 169 -107 275t-278 106q-201 0 -344 -145t-143 -356q0 -173 107 -279t278 -106z
M986 0h109q-149 -113 -149 -204q0 -44 32 -71.5t99 -27.5q30 0 70 5l-21 -85q-43 -10 -86 -10q-104 0 -154.5 45t-50.5 114q0 58 40 123.5t111 110.5z" />
    <glyph glyph-name="Cacute" unicode="&#x106;" horiz-adv-x="1665" 
d="M1576 1268l-89 -123q-234 220 -533 220q-195 0 -364.5 -95t-265 -256t-95.5 -346q0 -165 73.5 -293t212.5 -200.5t318 -72.5q273 0 509 173l82 -117q-175 -115 -301 -155t-291 -40q-305 0 -497 153q-255 205 -255 547q0 353 255 599t634 246q173 0 315 -54.5t292 -185.5z
M1066 1891h215l-339 -308h-138z" />
    <glyph glyph-name="cacute" unicode="&#x107;" horiz-adv-x="1325" 
d="M1198 853l-115 -67q-121 196 -370 196q-144 0 -263 -64t-186 -178t-67 -244q0 -115 50 -206t140.5 -140t213.5 -49q126 0 240.5 50t178.5 129l115 -81q-108 -118 -234.5 -172.5t-293.5 -54.5q-258 0 -402.5 140.5t-144.5 374.5q0 260 189.5 444.5t464.5 184.5
q165 0 291 -69.5t193 -193.5zM859 1598h215l-339 -308h-138z" />
    <glyph glyph-name="Ccircumflex" unicode="&#x108;" horiz-adv-x="1665" 
d="M1576 1268l-89 -123q-234 220 -533 220q-195 0 -364.5 -95t-265 -256t-95.5 -346q0 -165 73.5 -293t212.5 -200.5t318 -72.5q273 0 509 173l82 -117q-175 -115 -301 -155t-291 -40q-305 0 -497 153q-255 205 -255 547q0 353 255 599t634 246q173 0 315 -54.5t292 -185.5z
M908 1840h139l254 -257h-180l-155 152l-205 -152h-186z" />
    <glyph glyph-name="ccircumflex" unicode="&#x109;" horiz-adv-x="1325" 
d="M1198 853l-115 -67q-121 196 -370 196q-144 0 -263 -64t-186 -178t-67 -244q0 -115 50 -206t140.5 -140t213.5 -49q126 0 240.5 50t178.5 129l115 -81q-108 -118 -234.5 -172.5t-293.5 -54.5q-258 0 -402.5 140.5t-144.5 374.5q0 260 189.5 444.5t464.5 184.5
q165 0 291 -69.5t193 -193.5zM671 1542h139l254 -257h-180l-155 152l-205 -152h-186z" />
    <glyph glyph-name="Cdot" unicode="&#x10a;" horiz-adv-x="1665" 
d="M1576 1268l-89 -123q-234 220 -533 220q-195 0 -364.5 -95t-265 -256t-95.5 -346q0 -165 73.5 -293t212.5 -200.5t318 -72.5q273 0 509 173l82 -117q-175 -115 -301 -155t-291 -40q-305 0 -497 153q-255 205 -255 547q0 353 255 599t634 246q173 0 315 -54.5t292 -185.5z
M983 1816q43 0 72 -29t29 -71q0 -52 -40.5 -92t-94.5 -40q-42 0 -70.5 28.5t-28.5 71.5q0 52 40 92t93 40z" />
    <glyph glyph-name="cdot" unicode="&#x10b;" horiz-adv-x="1325" 
d="M1198 853l-115 -67q-121 196 -370 196q-144 0 -263 -64t-186 -178t-67 -244q0 -115 50 -206t140.5 -140t213.5 -49q126 0 240.5 50t178.5 129l115 -81q-108 -118 -234.5 -172.5t-293.5 -54.5q-258 0 -402.5 140.5t-144.5 374.5q0 260 189.5 444.5t464.5 184.5
q165 0 291 -69.5t193 -193.5zM746 1518q43 0 72 -29t29 -71q0 -52 -40.5 -92t-94.5 -40q-42 0 -70.5 28.5t-28.5 71.5q0 52 40 92t93 40z" />
    <glyph glyph-name="Ccaron" unicode="&#x10c;" horiz-adv-x="1665" 
d="M1576 1268l-89 -123q-234 220 -533 220q-195 0 -364.5 -95t-265 -256t-95.5 -346q0 -165 73.5 -293t212.5 -200.5t318 -72.5q273 0 509 173l82 -117q-175 -115 -301 -155t-291 -40q-305 0 -497 153q-255 205 -255 547q0 353 255 599t634 246q173 0 315 -54.5t292 -185.5z
M1044 1578h-139l-254 257h180l155 -152l205 152h186z" />
    <glyph glyph-name="ccaron" unicode="&#x10d;" horiz-adv-x="1325" 
d="M1198 853l-115 -67q-121 196 -370 196q-144 0 -263 -64t-186 -178t-67 -244q0 -115 50 -206t140.5 -140t213.5 -49q126 0 240.5 50t178.5 129l115 -81q-108 -118 -234.5 -172.5t-293.5 -54.5q-258 0 -402.5 140.5t-144.5 374.5q0 260 189.5 444.5t464.5 184.5
q165 0 291 -69.5t193 -193.5zM801 1285h-139l-254 257h180l155 -152l205 152h186z" />
    <glyph glyph-name="Dcaron" unicode="&#x10e;" horiz-adv-x="1524" 
d="M241 1471h316q300 0 460 -78.5t258 -243t98 -375.5q0 -225 -110.5 -416t-272 -274.5t-481.5 -83.5h-463zM368 1329l-157 -1186h129q298 0 395 16q148 24 249 94.5t173 211t72 306.5q0 175 -81.5 306t-223.5 196q-121 56 -409 56h-147zM823 1583h-139l-254 257h180
l155 -152l205 152h186z" />
    <glyph glyph-name="dcaron" unicode="&#x10f;" horiz-adv-x="1411" 
d="M1123 0h-141l21 164q-189 -192 -433 -192q-207 0 -357.5 135.5t-150.5 375.5q0 178 87 321t231 227.5t304 84.5q283 0 414 -235l81 627h145zM585 100q214 0 350.5 146t136.5 358q0 175 -110 278.5t-275 103.5q-195 0 -341 -142.5t-146 -358.5q0 -178 110 -281.5
t275 -103.5zM1416 1040l-61 37q71 114 86 196h-74l32 235h150l-10 -105q-14 -137 -42.5 -214t-80.5 -149z" />
    <glyph glyph-name="Dslash" unicode="&#x110;" horiz-adv-x="1618" 
d="M230 669h-186l18 132h185l89 670h316q299 0 459.5 -78.5t258.5 -243t98 -375.5q0 -225 -110.5 -416t-272 -274.5t-481.5 -83.5h-463zM375 669l-70 -526h129q299 0 396 16q147 24 248.5 94.5t173.5 211t72 306.5q0 175 -82 306t-223 196q-122 56 -410 56h-146l-70 -528
h358l-18 -132h-358z" />
    <glyph glyph-name="dmacron" unicode="&#x111;" horiz-adv-x="1403" 
d="M1145 1246h-411l19 132h409l17 130h145l-17 -130h143l-18 -132h-143l-166 -1246h-141l21 164q-189 -192 -433 -192q-222 0 -365 143t-143 368q0 260 185.5 446.5t436.5 186.5q136 0 238.5 -57t175.5 -178zM585 100q135 0 246 63.5t176 182.5t65 259q0 169 -107 275
t-278 106q-201 0 -344 -145t-143 -356q0 -173 107 -279t278 -106z" />
    <glyph glyph-name="Emacron" unicode="&#x112;" horiz-adv-x="1098" 
d="M1056 1471l-21 -143h-662l-65 -482h662l-19 -141h-662l-75 -564h662l-17 -141h-811l197 1471h811zM319 1776h690l-17 -119h-690z" />
    <glyph glyph-name="emacron" unicode="&#x113;" horiz-adv-x="1331" 
d="M1166 516h-970q-3 -194 101 -305t277 -111q115 0 213 47t162 132l104 -85q-79 -101 -206.5 -161.5t-275.5 -60.5q-256 0 -384.5 158.5t-128.5 356.5q0 162 86.5 312t231.5 233.5t314 83.5q209 0 346 -141.5t137 -360.5q0 -40 -7 -98zM1038 637q-6 154 -105 249.5
t-249 95.5q-163 0 -287.5 -92t-176.5 -253h818zM370 1479h690l-17 -119h-690z" />
    <glyph glyph-name="Ebreve" unicode="&#x114;" horiz-adv-x="1098" 
d="M1056 1471l-21 -143h-662l-65 -482h662l-19 -141h-662l-75 -564h662l-17 -141h-811l197 1471h811zM316 1823h132q53 -104 209 -104q82 0 135 22.5t105 81.5h128q-35 -90 -134.5 -150.5t-247.5 -60.5q-147 0 -231 60t-96 151z" />
    <glyph glyph-name="ebreve" unicode="&#x115;" horiz-adv-x="1331" 
d="M1166 516h-970q-3 -194 101 -305t277 -111q115 0 213 47t162 132l104 -85q-79 -101 -206.5 -161.5t-275.5 -60.5q-256 0 -384.5 158.5t-128.5 356.5q0 162 86.5 312t231.5 233.5t314 83.5q209 0 346 -141.5t137 -360.5q0 -40 -7 -98zM1038 637q-6 154 -105 249.5
t-249 95.5q-163 0 -287.5 -92t-176.5 -253h818zM380 1525h132q53 -104 209 -104q82 0 135 22.5t105 81.5h128q-35 -90 -134.5 -150.5t-247.5 -60.5q-147 0 -231 60t-96 151z" />
    <glyph glyph-name="Edot" unicode="&#x116;" horiz-adv-x="1098" 
d="M1056 1471l-21 -143h-662l-65 -482h662l-19 -141h-662l-75 -564h662l-17 -141h-811l197 1471h811zM682 1816q43 0 72 -29t29 -71q0 -52 -40.5 -92t-94.5 -40q-42 0 -70.5 28.5t-28.5 71.5q0 52 40 92t93 40z" />
    <glyph glyph-name="edot" unicode="&#x117;" horiz-adv-x="1331" 
d="M1166 516h-970q-3 -194 101 -305t277 -111q115 0 213 47t162 132l104 -85q-79 -101 -206.5 -161.5t-275.5 -60.5q-256 0 -384.5 158.5t-128.5 356.5q0 162 86.5 312t231.5 233.5t314 83.5q209 0 346 -141.5t137 -360.5q0 -40 -7 -98zM1038 637q-6 154 -105 249.5
t-249 95.5q-163 0 -287.5 -92t-176.5 -253h818zM733 1518q43 0 72 -29t29 -71q0 -52 -40.5 -92t-94.5 -40q-42 0 -70.5 28.5t-28.5 71.5q0 52 40 92t93 40z" />
    <glyph glyph-name="Eogonek" unicode="&#x118;" horiz-adv-x="1098" 
d="M1056 1471l-21 -143h-662l-65 -482h662l-19 -141h-662l-75 -564h662l-17 -141h-811l197 1471h811zM661 0h109q-149 -113 -149 -204q0 -44 32 -71.5t99 -27.5q30 0 70 5l-21 -85q-43 -10 -86 -10q-104 0 -154.5 45t-50.5 114q0 58 40 123.5t111 110.5z" />
    <glyph glyph-name="eogonek" unicode="&#x119;" horiz-adv-x="1331" 
d="M1166 516h-970q-3 -194 101 -305t277 -111q115 0 213 47t162 132l104 -85q-79 -101 -206.5 -161.5t-275.5 -60.5q-256 0 -384.5 158.5t-128.5 356.5q0 162 86.5 312t231.5 233.5t314 83.5q209 0 346 -141.5t137 -360.5q0 -40 -7 -98zM1038 637q-6 154 -105 249.5
t-249 95.5q-163 0 -287.5 -92t-176.5 -253h818zM611 0h109q-149 -113 -149 -204q0 -44 32 -71.5t99 -27.5q30 0 70 5l-21 -85q-43 -10 -86 -10q-104 0 -154.5 45t-50.5 114q0 58 40 123.5t111 110.5z" />
    <glyph glyph-name="Ecaron" unicode="&#x11a;" horiz-adv-x="1098" 
d="M1056 1471l-21 -143h-662l-65 -482h662l-19 -141h-662l-75 -564h662l-17 -141h-811l197 1471h811zM723 1583h-139l-254 257h180l155 -152l205 152h186z" />
    <glyph glyph-name="ecaron" unicode="&#x11b;" horiz-adv-x="1331" 
d="M1166 516h-970q-3 -194 101 -305t277 -111q115 0 213 47t162 132l104 -85q-79 -101 -206.5 -161.5t-275.5 -60.5q-256 0 -384.5 158.5t-128.5 356.5q0 162 86.5 312t231.5 233.5t314 83.5q209 0 346 -141.5t137 -360.5q0 -40 -7 -98zM1038 637q-6 154 -105 249.5
t-249 95.5q-163 0 -287.5 -92t-176.5 -253h818zM803 1285h-139l-254 257h180l155 -152l205 152h186z" />
    <glyph glyph-name="Gcircumflex" unicode="&#x11c;" horiz-adv-x="1786" 
d="M1597 1155l-118 -87q-111 145 -260.5 222.5t-306.5 77.5q-176 0 -338 -94.5t-254.5 -251t-92.5 -335.5q0 -243 173.5 -413.5t422.5 -170.5q149 0 286 61t222 162t124 250h-539v145h716q-22 -338 -242.5 -548t-549.5 -210q-338 0 -549 205t-211 515q0 221 111 412.5
t305.5 302t419.5 110.5q407 0 681 -353zM898 1840h139l254 -257h-180l-155 152l-205 -152h-186z" />
    <glyph glyph-name="gcircumflex" unicode="&#x11d;" horiz-adv-x="1378" 
d="M1113 1088h137l-125 -921q-30 -223 -73 -312q-59 -123 -196 -202t-324 -79q-184 0 -313.5 75t-196.5 217l125 45q114 -207 385 -207q143 0 247.5 58t149.5 149q27 55 55 239l6 43q-177 -193 -431 -193q-225 0 -362 137.5t-137 357.5q0 162 83.5 304.5t230 229.5t297.5 87
q126 0 230 -56.5t185 -178.5zM698 983q-137 0 -254.5 -65.5t-182 -177.5t-64.5 -251q0 -160 102 -258t274 -98q208 0 345.5 136t137.5 343q0 182 -112 276.5t-246 94.5zM678 1542h139l254 -257h-180l-155 152l-205 -152h-186z" />
    <glyph glyph-name="Gbreve" unicode="&#x11e;" horiz-adv-x="1786" 
d="M1597 1155l-118 -87q-111 145 -260.5 222.5t-306.5 77.5q-176 0 -338 -94.5t-254.5 -251t-92.5 -335.5q0 -243 173.5 -413.5t422.5 -170.5q149 0 286 61t222 162t124 250h-539v145h716q-22 -338 -242.5 -548t-549.5 -210q-338 0 -549 205t-211 515q0 221 111 412.5
t305.5 302t419.5 110.5q407 0 681 -353zM608 1818h132q53 -104 209 -104q82 0 135 22.5t105 81.5h128q-35 -90 -134.5 -150.5t-247.5 -60.5q-147 0 -231 60t-96 151z" />
    <glyph glyph-name="gbreve" unicode="&#x11f;" horiz-adv-x="1378" 
d="M1113 1088h137l-125 -921q-30 -223 -73 -312q-59 -123 -196 -202t-324 -79q-184 0 -313.5 75t-196.5 217l125 45q114 -207 385 -207q143 0 247.5 58t149.5 149q27 55 55 239l6 43q-177 -193 -431 -193q-225 0 -362 137.5t-137 357.5q0 162 83.5 304.5t230 229.5t297.5 87
q126 0 230 -56.5t185 -178.5zM698 983q-137 0 -254.5 -65.5t-182 -177.5t-64.5 -251q0 -160 102 -258t274 -98q208 0 345.5 136t137.5 343q0 182 -112 276.5t-246 94.5zM441 1525h132q53 -104 209 -104q82 0 135 22.5t105 81.5h128q-35 -90 -134.5 -150.5t-247.5 -60.5
q-147 0 -231 60t-96 151z" />
    <glyph glyph-name="Gdot" unicode="&#x120;" horiz-adv-x="1786" 
d="M1597 1155l-118 -87q-111 145 -260.5 222.5t-306.5 77.5q-176 0 -338 -94.5t-254.5 -251t-92.5 -335.5q0 -243 173.5 -413.5t422.5 -170.5q149 0 286 61t222 162t124 250h-539v145h716q-22 -338 -242.5 -548t-549.5 -210q-338 0 -549 205t-211 515q0 221 111 412.5
t305.5 302t419.5 110.5q407 0 681 -353zM967 1816q43 0 72 -29t29 -71q0 -52 -40.5 -92t-94.5 -40q-42 0 -70.5 28.5t-28.5 71.5q0 52 40 92t93 40z" />
    <glyph glyph-name="gdot" unicode="&#x121;" horiz-adv-x="1378" 
d="M1113 1088h137l-125 -921q-30 -223 -73 -312q-59 -123 -196 -202t-324 -79q-184 0 -313.5 75t-196.5 217l125 45q114 -207 385 -207q143 0 247.5 58t149.5 149q27 55 55 239l6 43q-177 -193 -431 -193q-225 0 -362 137.5t-137 357.5q0 162 83.5 304.5t230 229.5t297.5 87
q126 0 230 -56.5t185 -178.5zM698 983q-137 0 -254.5 -65.5t-182 -177.5t-64.5 -251q0 -160 102 -258t274 -98q208 0 345.5 136t137.5 343q0 182 -112 276.5t-246 94.5zM753 1518q43 0 72 -29t29 -71q0 -52 -40.5 -92t-94.5 -40q-42 0 -70.5 28.5t-28.5 71.5q0 52 40 92
t93 40z" />
    <glyph glyph-name="Gcedilla" unicode="&#x122;" horiz-adv-x="1786" 
d="M1597 1155l-118 -87q-111 145 -260.5 222.5t-306.5 77.5q-176 0 -338 -94.5t-254.5 -251t-92.5 -335.5q0 -243 173.5 -413.5t422.5 -170.5q149 0 286 61t222 162t124 250h-539v145h716q-22 -338 -242.5 -548t-549.5 -210q-338 0 -549 205t-211 515q0 221 111 412.5
t305.5 302t419.5 110.5q407 0 681 -353zM764 0h88l-34 -118q24 3 39 3q44 0 72.5 -26t28.5 -65q0 -70 -68 -122t-185 -52q-88 0 -162 30l31 69q62 -20 118 -20q78 0 111 20.5t33 48.5q0 16 -15 27.5t-41 11.5q-24 0 -72 -9z" />
    <glyph glyph-name="gcedilla" unicode="&#x123;" horiz-adv-x="1378" 
d="M1113 1088h137l-125 -921q-30 -223 -73 -312q-59 -123 -196 -202t-324 -79q-184 0 -313.5 75t-196.5 217l125 45q114 -207 385 -207q143 0 247.5 58t149.5 149q27 55 55 239l6 43q-177 -193 -431 -193q-225 0 -362 137.5t-137 357.5q0 162 83.5 304.5t230 229.5t297.5 87
q126 0 230 -56.5t185 -178.5zM698 983q-137 0 -254.5 -65.5t-182 -177.5t-64.5 -251q0 -160 102 -258t274 -98q208 0 345.5 136t137.5 343q0 182 -112 276.5t-246 94.5zM794 1818l72 -44q-55 -91 -72 -131t-30 -99h88l-39 -277h-176l13 123q15 155 47 245t97 183z" />
    <glyph glyph-name="Hcircumflex" unicode="&#x124;" horiz-adv-x="1399" 
d="M245 1471h145l-79 -598h753l80 598h143l-193 -1471h-144l97 734h-757l-96 -734h-146zM747 1840h139l254 -257h-180l-155 152l-205 -152h-186z" />
    <glyph glyph-name="hcircumflex" unicode="&#x125;" horiz-adv-x="1249" 
d="M248 1508h136l-80 -585q168 193 384 193q165 0 269.5 -103t104.5 -268q0 -91 -22 -245l-68 -500h-138l68 500q21 151 21 240q0 112 -70 181t-184 69q-106 0 -200.5 -57t-146 -154t-80.5 -308l-65 -471h-136zM656 1840h139l254 -257h-180l-155 152l-205 -152h-186z" />
    <glyph glyph-name="Hbar" unicode="&#x126;" horiz-adv-x="1399" 
d="M1239 1101l-145 -1101h-144l97 734h-757l-96 -734h-146l147 1101h-133l19 138h133l31 232h145l-31 -232h754l31 232h143l-30 -232h133l-18 -138h-133zM1095 1101h-754l-30 -228h753z" />
    <glyph glyph-name="hbar" unicode="&#x127;" horiz-adv-x="1249" 
d="M211 1240h-155l16 116h155l21 152h136l-21 -152h374l-15 -116h-375l-43 -317q168 193 384 193q155 0 264.5 -98t109.5 -266q0 -94 -22 -252l-68 -500h-138l68 500q21 151 21 240q0 110 -69 180t-184 70q-102 0 -194.5 -52.5t-147.5 -148.5t-86 -318l-65 -471h-136z" />
    <glyph glyph-name="Itilde" unicode="&#x128;" horiz-adv-x="463" 
d="M239 1471h148l-199 -1471h-148zM642 1789l57 -97q-80 -52 -132.5 -70t-106.5 -18q-72 0 -143 37q-60 32 -77 37q-24 7 -50 7q-37 0 -70 -12.5t-99 -56.5l-52 102q105 97 238 97q64 0 148 -40q80 -39 126 -39q58 0 161 53z" />
    <glyph glyph-name="itilde" unicode="&#x129;" horiz-adv-x="410" 
d="M164 1088h133l-145 -1088h-138zM548 1492l57 -97q-80 -52 -132.5 -70t-106.5 -18q-72 0 -143 37q-60 32 -77 37q-24 7 -50 7q-37 0 -70 -12.5t-99 -56.5l-52 102q105 97 238 97q64 0 148 -40q80 -39 126 -39q58 0 161 53z" />
    <glyph glyph-name="Imacron" unicode="&#x12a;" horiz-adv-x="463" 
d="M239 1471h148l-199 -1471h-148zM-1 1776h690l-17 -119h-690z" />
    <glyph glyph-name="imacron" unicode="&#x12b;" horiz-adv-x="410" 
d="M163 1088h133l-145 -1088h-138zM-71 1479h690l-17 -119h-690z" />
    <glyph glyph-name="Ibreve" unicode="&#x12c;" horiz-adv-x="463" 
d="M238 1471h148l-199 -1471h-148zM-11 1823h132q53 -104 209 -104q82 0 135 22.5t105 81.5h128q-35 -90 -134.5 -150.5t-247.5 -60.5q-147 0 -231 60t-96 151z" />
    <glyph glyph-name="ibreve" unicode="&#x12d;" horiz-adv-x="410" 
d="M163 1088h133l-145 -1088h-138zM-74 1525h132q53 -104 209 -104q82 0 135 22.5t105 81.5h128q-35 -90 -134.5 -150.5t-247.5 -60.5q-147 0 -231 60t-96 151z" />
    <glyph glyph-name="Iogonek" unicode="&#x12e;" horiz-adv-x="463" 
d="M238 1471h148l-199 -1471h-148zM78 0h109q-149 -113 -149 -204q0 -44 32 -71.5t99 -27.5q30 0 70 5l-21 -85q-43 -10 -86 -10q-104 0 -154.5 45t-50.5 114q0 58 40 123.5t111 110.5z" />
    <glyph glyph-name="iogonek" unicode="&#x12f;" horiz-adv-x="410" 
d="M274 1536q46 0 79 -33t33 -79q0 -47 -33 -79.5t-79 -32.5q-47 0 -79.5 32.5t-32.5 79.5q0 46 32.5 79t79.5 33zM164 1088h133l-145 -1088h-138zM43 0h109q-149 -113 -149 -204q0 -44 32 -71.5t99 -27.5q30 0 70 5l-21 -85q-43 -10 -86 -10q-104 0 -154.5 45t-50.5 114
q0 58 40 123.5t111 110.5z" />
    <glyph glyph-name="Idot" unicode="&#x130;" horiz-adv-x="463" 
d="M238 1471h148l-199 -1471h-148zM360 1811q43 0 72 -29t29 -71q0 -52 -40.5 -92t-94.5 -40q-42 0 -70.5 28.5t-28.5 71.5q0 52 40 92t93 40z" />
    <glyph glyph-name="dotlessi" unicode="&#x131;" horiz-adv-x="410" 
d="M164 1088h133l-145 -1088h-138z" />
    <glyph glyph-name="IJ" unicode="&#x132;" horiz-adv-x="1450" 
d="M238 1471h148l-199 -1471h-148zM1142 1471h146l-133 -1014q-25 -192 -58 -286.5t-114 -151t-192 -56.5q-195 0 -354 177l114 80q120 -121 243 -121q68 0 125.5 55.5t88.5 291.5z" />
    <glyph glyph-name="ij" unicode="&#x133;" horiz-adv-x="825" 
d="M274 1536q46 0 79 -33t33 -79q0 -47 -33 -79.5t-79 -32.5t-79 33t-33 79q0 47 32.5 79.5t79.5 32.5zM691 1536q45 0 78.5 -32t33.5 -80q0 -47 -33 -79.5t-79 -32.5t-79 33t-33 79q0 47 32.5 79.5t79.5 32.5zM164 1088h133l-145 -1088h-138zM580 1088h137l-159 -1158
q-33 -238 -94 -297t-130 -59q-53 0 -121 28l17 119q35 -22 71 -22q87 0 113 188z" />
    <glyph glyph-name="Jcircumflex" unicode="&#x134;" horiz-adv-x="987" 
d="M680 1471h145l-133 -1014q-30 -229 -69.5 -314.5t-116 -132.5t-177.5 -47q-93 0 -179 40.5t-175 136.5l113 80q125 -121 244 -121q90 0 145 82q42 62 69 265zM623 1840h139l254 -257h-180l-155 152l-205 -152h-186z" />
    <glyph glyph-name="jcircumflex" unicode="&#x135;" horiz-adv-x="416" 
d="M212 1542h140l254 -257h-181l-155 152l-205 -152h-186zM170 1088h137l-159 -1158q-33 -240 -93.5 -298t-130.5 -58q-56 0 -121 28l17 119q35 -22 71 -22q86 0 112 188z" />
    <glyph glyph-name="Kcedilla" unicode="&#x136;" horiz-adv-x="1210" 
d="M243 1471h145l-79 -597l689 597h211l-797 -688l690 -783h-188l-625 710l-98 -710h-144zM406 -120q40 10 84 10q138 0 138 -95q0 -70 -69 -122.5t-184 -52.5q-63 0 -138 21l32 70q56 -12 97 -12q139 0 139 70q0 38 -62 38q-26 0 -61 -7z" />
    <glyph glyph-name="kcedilla" unicode="&#x137;" horiz-adv-x="1028" 
d="M252 1508h136l-115 -823l524 403h218l-632 -486l557 -602h-186l-502 540l-73 -540h-140zM320 -120q40 10 84 10q138 0 138 -95q0 -70 -69 -122.5t-184 -52.5q-63 0 -138 21l32 70q56 -12 97 -12q139 0 139 70q0 38 -62 38q-26 0 -61 -7z" />
    <glyph glyph-name="kgreenlandic" unicode="&#x138;" horiz-adv-x="1028" 
d="M192 1088h137l-56 -403l524 403h218l-632 -486l557 -602h-186l-502 540l-73 -540h-140z" />
    <glyph glyph-name="Lacute" unicode="&#x139;" horiz-adv-x="946" 
d="M246 1471h148l-177 -1333h636l-17 -138h-784zM556 1895h215l-339 -308h-138z" />
    <glyph glyph-name="lacute" unicode="&#x13a;" horiz-adv-x="410" 
d="M225 1508h137l-210 -1508h-138zM454 1895h215l-339 -308h-138z" />
    <glyph glyph-name="Lcedilla" unicode="&#x13b;" horiz-adv-x="946" 
d="M246 1471h148l-177 -1333h636l-17 -138h-784zM310 -120q40 10 84 10q138 0 138 -95q0 -70 -69 -122.5t-184 -52.5q-63 0 -138 21l32 70q56 -12 97 -12q139 0 139 70q0 38 -62 38q-26 0 -61 -7z" />
    <glyph glyph-name="lcedilla" unicode="&#x13c;" horiz-adv-x="410" 
d="M225 1508h137l-210 -1508h-138zM-14 -120q40 10 84 10q138 0 138 -95q0 -70 -69 -122.5t-184 -52.5q-63 0 -138 21l32 70q56 -12 97 -12q139 0 139 70q0 38 -62 38q-26 0 -61 -7z" />
    <glyph glyph-name="Lcaron" unicode="&#x13d;" horiz-adv-x="946" 
d="M246 1471h148l-177 -1333h636l-17 -138h-784zM556 920l-72 44q55 91 72 131t30 99h-88l38 277h177l-13 -123q-16 -156 -47.5 -245.5t-96.5 -182.5z" />
    <glyph glyph-name="lcaron" unicode="&#x13e;" horiz-adv-x="414" 
d="M225 1508h137l-210 -1508h-138zM453 1040l-61 37q72 114 87 196h-75l33 235h150l-11 -105q-14 -137 -42.5 -214t-80.5 -149z" />
    <glyph glyph-name="Ldot" unicode="&#x13f;" horiz-adv-x="946" 
d="M246 1471h148l-177 -1333h636l-17 -138h-784zM600 870q43 0 72 -28.5t29 -71.5q0 -52 -40.5 -92t-94.5 -40q-42 0 -70.5 29t-28.5 71q0 52 40 92t93 40z" />
    <glyph glyph-name="ldot" unicode="&#x140;" horiz-adv-x="540" 
d="M225 1508h137l-210 -1508h-138zM472 870q43 0 72 -28.5t29 -71.5q0 -52 -40.5 -92t-94.5 -40q-42 0 -70.5 29t-28.5 71q0 52 40 92t93 40z" />
    <glyph glyph-name="Lslash" unicode="&#x141;" horiz-adv-x="1059" 
d="M366 834l283 141l-22 -160l-282 -141l-71 -536h636l-17 -138h-784l78 595l-179 -90l22 161l179 89l94 716h148z" />
    <glyph glyph-name="lslash" unicode="&#x142;" horiz-adv-x="614" 
d="M381 914l224 127l-22 -160l-224 -127l-105 -754h-138l94 669l-200 -113l22 159l200 114l95 679h137z" />
    <glyph glyph-name="Nacute" unicode="&#x143;" horiz-adv-x="1515" 
d="M1265 1471h144l-199 -1471h-32l-828 1140l-154 -1140h-146l198 1471h32l830 -1142zM951 1895h215l-339 -308h-138z" />
    <glyph glyph-name="nacute" unicode="&#x144;" horiz-adv-x="1249" 
d="M192 1088h134l-21 -167q165 195 384 195q168 0 271 -103.5t103 -278.5q0 -70 -22 -235l-68 -499h-138l67 499q22 160 22 236q0 114 -69 184t-181 70q-110 0 -204.5 -56.5t-146.5 -154t-80 -308.5l-65 -470h-137zM820 1598h215l-339 -308h-138z" />
    <glyph glyph-name="Ncedilla" unicode="&#x145;" horiz-adv-x="1515" 
d="M1265 1471h144l-199 -1471h-32l-828 1140l-154 -1140h-146l198 1471h32l830 -1142zM558 -120q40 10 84 10q138 0 138 -95q0 -70 -69 -122.5t-184 -52.5q-63 0 -138 21l32 70q56 -12 97 -12q139 0 139 70q0 38 -62 38q-26 0 -61 -7z" />
    <glyph glyph-name="ncedilla" unicode="&#x146;" horiz-adv-x="1249" 
d="M192 1088h134l-21 -167q165 195 384 195q168 0 271 -103.5t103 -278.5q0 -70 -22 -235l-68 -499h-138l67 499q22 160 22 236q0 114 -69 184t-181 70q-110 0 -204.5 -56.5t-146.5 -154t-80 -308.5l-65 -470h-137zM419 -120q40 10 84 10q138 0 138 -95q0 -70 -69 -122.5
t-184 -52.5q-63 0 -138 21l32 70q56 -12 97 -12q139 0 139 70q0 38 -62 38q-26 0 -61 -7z" />
    <glyph glyph-name="Ncaron" unicode="&#x147;" horiz-adv-x="1515" 
d="M1265 1471h144l-199 -1471h-32l-828 1140l-154 -1140h-146l198 1471h32l830 -1142zM902 1582h-139l-254 257h180l155 -152l205 152h186z" />
    <glyph glyph-name="ncaron" unicode="&#x148;" horiz-adv-x="1249" 
d="M192 1088h134l-21 -167q165 195 384 195q168 0 271 -103.5t103 -278.5q0 -70 -22 -235l-68 -499h-138l67 499q22 160 22 236q0 114 -69 184t-181 70q-110 0 -204.5 -56.5t-146.5 -154t-80 -308.5l-65 -470h-137zM791 1285h-139l-254 257h180l155 -152l205 152h186z" />
    <glyph glyph-name="napostrophe" unicode="&#x149;" horiz-adv-x="1249" 
d="M186 1088h134l-21 -167q165 195 384 195q168 0 271 -103.5t103 -278.5q0 -70 -22 -235l-68 -499h-138l67 499q22 160 22 236q0 114 -69 184t-181 70q-110 0 -204.5 -56.5t-146.5 -154t-80 -308.5l-65 -470h-137zM24 957l-72 44q55 91 72 131t30 99h-88l38 277h177
l-13 -123q-16 -156 -47.5 -245.5t-96.5 -182.5z" />
    <glyph glyph-name="Eng" unicode="&#x14a;" horiz-adv-x="1591" 
d="M343 1120l-149 -1120h-146l197 1471h145l-24 -177q227 214 503 214q264 0 422 -179t158 -473q0 -353 -202.5 -623t-490.5 -270q-114 0 -194.5 39.5t-140.5 152.5l112 87q80 -140 244 -140q214 0 368.5 232.5t154.5 502.5q0 239 -128.5 385.5t-338.5 146.5
q-268 0 -490 -249z" />
    <glyph glyph-name="eng" unicode="&#x14b;" horiz-adv-x="1249" 
d="M618 -398l17 119q35 -22 71 -22q87 0 113 188l81 598q24 173 24 250q0 111 -67.5 182.5t-182.5 71.5q-126 0 -223 -68t-140 -167t-68 -284l-65 -470h-137l151 1088h134l-21 -167q165 195 384 195q159 0 266.5 -99.5t107.5 -275.5q0 -86 -25 -262l-75 -549
q-33 -240 -93.5 -298t-130.5 -58q-56 0 -121 28z" />
    <glyph glyph-name="Omacron" unicode="&#x14c;" horiz-adv-x="1780" 
d="M956 1508q297 0 494.5 -195t197.5 -493q0 -363 -250.5 -610t-624.5 -247q-318 0 -509 190t-191 497q0 237 114.5 435t317 310.5t451.5 112.5zM953 1369q-211 0 -376.5 -92t-262 -261t-96.5 -360q0 -162 70 -290.5t193.5 -196.5t290.5 -68q198 0 367 95.5t265.5 265
t96.5 366.5q0 261 -183 414q-152 127 -365 127zM615 1776h690l-17 -119h-690z" />
    <glyph glyph-name="omacron" unicode="&#x14d;" horiz-adv-x="1341" 
d="M680 1116q139 0 255 -66.5t181 -185t65 -268.5q0 -171 -83 -317.5t-223 -226.5t-317 -80q-219 0 -360.5 143.5t-141.5 365.5q0 174 83 321t227.5 230.5t313.5 83.5zM677 983q-130 0 -244.5 -65t-176 -178.5t-61.5 -250.5q0 -172 106 -279.5t274 -107.5q131 0 237.5 62.5
t169.5 180.5t63 253q0 113 -47 200.5t-133 136t-188 48.5zM373 1479h690l-17 -119h-690z" />
    <glyph glyph-name="Obreve" unicode="&#x14e;" horiz-adv-x="1780" 
d="M956 1508q297 0 494.5 -195t197.5 -493q0 -363 -250.5 -610t-624.5 -247q-318 0 -509 190t-191 497q0 237 114.5 435t317 310.5t451.5 112.5zM953 1369q-211 0 -376.5 -92t-262 -261t-96.5 -360q0 -162 70 -290.5t193.5 -196.5t290.5 -68q198 0 367 95.5t265.5 265
t96.5 366.5q0 261 -183 414q-152 127 -365 127zM612 1823h132q53 -104 209 -104q82 0 135 22.5t105 81.5h128q-35 -90 -134.5 -150.5t-247.5 -60.5q-147 0 -231 60t-96 151z" />
    <glyph glyph-name="obreve" unicode="&#x14f;" horiz-adv-x="1341" 
d="M680 1116q139 0 255 -66.5t181 -185t65 -268.5q0 -171 -83 -317.5t-223 -226.5t-317 -80q-219 0 -360.5 143.5t-141.5 365.5q0 174 83 321t227.5 230.5t313.5 83.5zM677 983q-130 0 -244.5 -65t-176 -178.5t-61.5 -250.5q0 -172 106 -279.5t274 -107.5q131 0 237.5 62.5
t169.5 180.5t63 253q0 113 -47 200.5t-133 136t-188 48.5zM370 1525h132q53 -104 209 -104q82 0 135 22.5t105 81.5h128q-35 -90 -134.5 -150.5t-247.5 -60.5q-147 0 -231 60t-96 151z" />
    <glyph glyph-name="Odblacute" unicode="&#x150;" horiz-adv-x="1780" 
d="M956 1508q297 0 494.5 -195t197.5 -493q0 -363 -250.5 -610t-624.5 -247q-318 0 -509 190t-191 497q0 237 114.5 435t317 310.5t451.5 112.5zM953 1369q-211 0 -376.5 -92t-262 -261t-96.5 -360q0 -162 70 -290.5t193.5 -196.5t290.5 -68q198 0 367 95.5t265.5 265
t96.5 366.5q0 261 -183 414q-152 127 -365 127zM1004 1896h215l-339 -308h-138zM1320 1896h215l-339 -308h-138z" />
    <glyph glyph-name="odblacute" unicode="&#x151;" horiz-adv-x="1341" 
d="M680 1116q139 0 255 -66.5t181 -185t65 -268.5q0 -171 -83 -317.5t-223 -226.5t-317 -80q-219 0 -360.5 143.5t-141.5 365.5q0 174 83 321t227.5 230.5t313.5 83.5zM677 983q-130 0 -244.5 -65t-176 -178.5t-61.5 -250.5q0 -172 106 -279.5t274 -107.5q131 0 237.5 62.5
t169.5 180.5t63 253q0 113 -47 200.5t-133 136t-188 48.5zM744 1598h215l-339 -308h-138zM1060 1598h215l-339 -308h-138z" />
    <glyph glyph-name="OE" unicode="&#x152;" horiz-adv-x="2445" 
d="M1593 1471h808l-18 -143h-664l-65 -482h664l-18 -141h-664l-75 -563h664l-20 -142h-810l32 239q-137 -143 -297 -209.5t-356 -66.5q-343 0 -536 225q-160 188 -160 470q0 356 248.5 603t608.5 247q212 0 367 -85.5t251 -255.5zM930 1368q-141 0 -314.5 -80t-283.5 -250
t-110 -388q0 -244 157.5 -400.5t396.5 -156.5q189 0 360.5 98t269 266t97.5 357q0 163 -70.5 287t-202 195.5t-300.5 71.5z" />
    <glyph glyph-name="oe" unicode="&#x153;" horiz-adv-x="2329" 
d="M2154 517h-968q-3 -38 -3 -57q0 -154 105.5 -256.5t274.5 -102.5q227 0 375 178l105 -84q-84 -106 -208.5 -164.5t-275.5 -58.5q-164 0 -277.5 69t-187.5 213q-106 -150 -222 -210q-139 -72 -307 -72q-227 0 -364 141.5t-137 368.5q0 169 84 319t223.5 232.5t305.5 82.5
q164 0 286.5 -78t180.5 -216q102 148 238 221t294 73q216 0 351 -138.5t135 -364.5q0 -46 -8 -96zM682 984q-204 0 -341 -141.5t-137 -360.5q0 -178 102 -279t275 -101q198 0 336 142.5t138 354.5q0 174 -104 279.5t-269 105.5zM2028 636q-2 147 -102 247t-248 100
q-169 0 -301 -99.5t-168 -247.5h819z" />
    <glyph glyph-name="Racute" unicode="&#x154;" horiz-adv-x="1243" 
d="M278 1471h369q197 0 282 -37.5t138 -120t53 -191.5q0 -119 -62.5 -221t-170.5 -153.5t-284 -51.5l444 -696h-167l-443 696h-116l-95 -696h-148zM407 1330l-66 -490h169q188 0 246 15q97 24 156.5 94.5t59.5 172.5q0 115 -83 167q-64 41 -230 41h-252zM781 1895h215
l-339 -308h-138z" />
    <glyph glyph-name="racute" unicode="&#x155;" horiz-adv-x="616" 
d="M133 1088h139l-18 -137q56 78 135 121.5t162 43.5q59 0 123 -28l-66 -128q-52 21 -87 21q-73 0 -144.5 -51t-116 -148.5t-75.5 -320.5l-64 -461h-136zM611 1598h215l-339 -308h-138z" />
    <glyph glyph-name="Rcedilla" unicode="&#x156;" horiz-adv-x="1243" 
d="M278 1471h369q197 0 282 -37.5t138 -120t53 -191.5q0 -119 -62.5 -221t-170.5 -153.5t-284 -51.5l444 -696h-167l-443 696h-116l-95 -696h-148zM407 1330l-66 -490h169q188 0 246 15q97 24 156.5 94.5t59.5 172.5q0 115 -83 167q-64 41 -230 41h-252zM409 -120
q40 10 84 10q138 0 138 -95q0 -70 -69 -122.5t-184 -52.5q-63 0 -138 21l32 70q56 -12 97 -12q139 0 139 70q0 38 -62 38q-26 0 -61 -7z" />
    <glyph glyph-name="rcedilla" unicode="&#x157;" horiz-adv-x="616" 
d="M134 1088h139l-18 -137q56 78 135 121.5t162 43.5q59 0 123 -28l-66 -128q-52 21 -87 21q-73 0 -144.5 -51t-116 -148.5t-75.5 -320.5l-64 -461h-136zM90 -120q40 10 84 10q138 0 138 -95q0 -70 -69 -122.5t-184 -52.5q-63 0 -138 21l32 70q56 -12 97 -12q139 0 139 70
q0 38 -62 38q-26 0 -61 -7z" />
    <glyph glyph-name="Rcaron" unicode="&#x158;" horiz-adv-x="1243" 
d="M278 1471h369q197 0 282 -37.5t138 -120t53 -191.5q0 -119 -62.5 -221t-170.5 -153.5t-284 -51.5l444 -696h-167l-443 696h-116l-95 -696h-148zM407 1330l-66 -490h169q188 0 246 15q97 24 156.5 94.5t59.5 172.5q0 115 -83 167q-64 41 -230 41h-252zM802 1582h-139
l-254 257h180l155 -152l205 152h186z" />
    <glyph glyph-name="rcaron" unicode="&#x159;" horiz-adv-x="616" 
d="M133 1088h139l-18 -137q56 78 135 121.5t162 43.5q59 0 123 -28l-66 -128q-52 21 -87 21q-73 0 -144.5 -51t-116 -148.5t-75.5 -320.5l-64 -461h-136zM492 1285h-139l-254 257h180l155 -152l205 152h186z" />
    <glyph glyph-name="Sacute" unicode="&#x15a;" horiz-adv-x="1020" 
d="M927 1199l-139 -35q-28 93 -92 147t-138 54q-82 0 -133.5 -55.5t-51.5 -148.5q0 -82 55 -171q34 -56 164 -174q135 -122 188.5 -227.5t53.5 -206.5q0 -107 -58.5 -206t-157.5 -156t-210 -57q-141 0 -244.5 90t-148.5 264l136 46q32 -132 104 -196t166 -64q107 0 184 79
t77 195q0 85 -43.5 166t-170.5 195q-136 124 -177 190q-67 110 -67 232q0 151 98.5 249.5t244.5 98.5q123 0 219 -78t141 -231zM781 1895h215l-339 -308h-138z" />
    <glyph glyph-name="sacute" unicode="&#x15b;" horiz-adv-x="795" 
d="M694 966l-76 -113q-92 131 -218 131q-72 0 -123 -47t-51 -104q0 -44 31 -84q30 -40 137 -109q156 -101 206 -176q49 -76 49 -175q0 -137 -95.5 -227t-248.5 -90q-202 0 -340 179l85 99q121 -147 263 -147q81 0 141 57t60 132q0 61 -45 117q-29 36 -156 122
q-137 94 -180 156q-43 61 -43 138q0 121 91 206t230 85q82 0 148.5 -33t134.5 -117zM620 1598h215l-339 -308h-138z" />
    <glyph glyph-name="Scircumflex" unicode="&#x15c;" horiz-adv-x="1020" 
d="M927 1199l-139 -35q-28 93 -92 147t-138 54q-82 0 -133.5 -55.5t-51.5 -148.5q0 -82 55 -171q34 -56 164 -174q135 -122 188.5 -227.5t53.5 -206.5q0 -107 -58.5 -206t-157.5 -156t-210 -57q-141 0 -244.5 90t-148.5 264l136 46q32 -132 104 -196t166 -64q107 0 184 79
t77 195q0 85 -43.5 166t-170.5 195q-136 124 -177 190q-67 110 -67 232q0 151 98.5 249.5t244.5 98.5q123 0 219 -78t141 -231zM575 1840h139l254 -257h-180l-155 152l-205 -152h-186z" />
    <glyph glyph-name="scircumflex" unicode="&#x15d;" horiz-adv-x="795" 
d="M694 966l-76 -113q-92 131 -218 131q-72 0 -123 -47t-51 -104q0 -44 31 -84q30 -40 137 -109q156 -101 206 -176q49 -76 49 -175q0 -137 -95.5 -227t-248.5 -90q-202 0 -340 179l85 99q121 -147 263 -147q81 0 141 57t60 132q0 61 -45 117q-29 36 -156 122
q-137 94 -180 156q-43 61 -43 138q0 121 91 206t230 85q82 0 148.5 -33t134.5 -117zM390 1542h139l254 -257h-180l-155 152l-205 -152h-186z" />
    <glyph glyph-name="Scedilla" unicode="&#x15e;" horiz-adv-x="1020" 
d="M927 1199l-139 -35q-28 93 -92 147t-138 54q-82 0 -133.5 -55.5t-51.5 -148.5q0 -82 55 -171q34 -56 164 -174q135 -122 188.5 -227.5t53.5 -206.5q0 -107 -58.5 -206t-157.5 -156t-210 -57q-141 0 -244.5 90t-148.5 264l136 46q32 -132 104 -196t166 -64q107 0 184 79
t77 195q0 85 -43.5 166t-170.5 195q-136 124 -177 190q-67 110 -67 232q0 151 98.5 249.5t244.5 98.5q123 0 219 -78t141 -231zM356 0h88l-34 -118q24 3 39 3q44 0 72.5 -26t28.5 -65q0 -70 -68 -122t-185 -52q-88 0 -162 30l31 69q62 -20 118 -20q78 0 111 20.5t33 48.5
q0 16 -15 27.5t-41 11.5q-24 0 -72 -9z" />
    <glyph glyph-name="scedilla" unicode="&#x15f;" horiz-adv-x="795" 
d="M694 966l-76 -113q-92 131 -218 131q-72 0 -123 -47t-51 -104q0 -44 31 -84q30 -40 137 -109q156 -101 206 -176q49 -76 49 -175q0 -137 -95.5 -227t-248.5 -90q-202 0 -340 179l85 99q121 -147 263 -147q81 0 141 57t60 132q0 61 -45 117q-29 36 -156 122
q-137 94 -180 156q-43 61 -43 138q0 121 91 206t230 85q82 0 148.5 -33t134.5 -117zM267 0h88l-34 -118q24 3 39 3q44 0 72.5 -26t28.5 -65q0 -70 -68 -122t-185 -52q-88 0 -162 30l31 69q62 -20 118 -20q78 0 111 20.5t33 48.5q0 16 -15 27.5t-41 11.5q-24 0 -72 -9z" />
    <glyph glyph-name="Scaron" unicode="&#x160;" horiz-adv-x="1020" 
d="M927 1199l-139 -35q-28 93 -92 147t-138 54q-82 0 -133.5 -55.5t-51.5 -148.5q0 -82 55 -171q34 -56 164 -174q135 -122 188.5 -227.5t53.5 -206.5q0 -107 -58.5 -206t-157.5 -156t-210 -57q-141 0 -244.5 90t-148.5 264l136 46q32 -132 104 -196t166 -64q107 0 184 79
t77 195q0 85 -43.5 166t-170.5 195q-136 124 -177 190q-67 110 -67 232q0 151 98.5 249.5t244.5 98.5q123 0 219 -78t141 -231zM648 1583h-139l-254 257h180l155 -152l205 152h186z" />
    <glyph glyph-name="scaron" unicode="&#x161;" horiz-adv-x="795" 
d="M694 966l-76 -113q-92 131 -218 131q-72 0 -123 -47t-51 -104q0 -44 31 -84q30 -40 137 -109q156 -101 206 -176q49 -76 49 -175q0 -137 -95.5 -227t-248.5 -90q-202 0 -340 179l85 99q121 -147 263 -147q81 0 141 57t60 132q0 61 -45 117q-29 36 -156 122
q-137 94 -180 156q-43 61 -43 138q0 121 91 206t230 85q82 0 148.5 -33t134.5 -117zM535 1285h-139l-254 257h180l155 -152l205 152h186z" />
    <glyph glyph-name="Tcedilla" unicode="&#x162;" horiz-adv-x="872" 
d="M73 1471h879l-19 -140h-375l-177 -1331h-147l177 1331h-357zM286 -428l-61 27q42 73 52 126h-82l22 154h156l-7 -51q-24 -167 -80 -256z" />
    <glyph glyph-name="tcedilla" unicode="&#x163;" horiz-adv-x="694" 
d="M363 1495h137l-54 -407h216l-16 -122h-216l-132 -966h-140l131 966h-187l17 122h186zM209 -428l-61 27q42 73 52 126h-82l21 154h157l-7 -51q-24 -167 -80 -256z" />
    <glyph glyph-name="Tcaron" unicode="&#x164;" horiz-adv-x="872" 
d="M73 1471h879l-19 -140h-375l-177 -1331h-147l177 1331h-357zM574 1583h-139l-254 257h180l155 -152l205 152h186z" />
    <glyph glyph-name="tcaron" unicode="&#x165;" horiz-adv-x="694" 
d="M613 1163l-55 26q72 89 83 154h-67l29 165h135l-10 -73q-12 -96 -34.5 -151.5t-80.5 -120.5zM363 1495h137l-54 -407h216l-16 -122h-216l-132 -966h-140l131 966h-187l17 122h186z" />
    <glyph glyph-name="Tbar" unicode="&#x166;" horiz-adv-x="872" 
d="M319 639h-280l18 138h281l74 554h-358l19 140h879l-18 -140h-376l-74 -554h284l-18 -138h-284l-85 -639h-146z" />
    <glyph glyph-name="tbar" unicode="&#x167;" horiz-adv-x="694" 
d="M381 607h247l-16 -116h-247l-67 -491h-140l67 491h-215l15 116h215l49 359h-187l17 122h186l58 407h137l-54 -407h216l-16 -122h-216z" />
    <glyph glyph-name="Utilde" unicode="&#x168;" horiz-adv-x="1341" 
d="M233 1471h145l-111 -842q-22 -168 -22 -239q0 -138 79 -212.5t223 -74.5q101 0 179 34t132.5 99t77.5 150q40 148 69 374l92 711h145l-98 -743l-24 -182q-21 -127 -50 -216.5t-76 -158.5t-107 -113t-145.5 -69.5t-191.5 -25.5q-217 0 -335 110t-118 292q0 51 6 114
l22 172zM1067 1789l57 -97q-80 -52 -132.5 -70t-106.5 -18q-72 0 -143 37q-60 32 -77 37q-24 7 -50 7q-37 0 -70 -12.5t-99 -56.5l-52 102q105 97 238 97q64 0 148 -40q80 -39 126 -39q58 0 161 53z" />
    <glyph glyph-name="utilde" unicode="&#x169;" horiz-adv-x="1245" 
d="M188 1088h140l-63 -455q-26 -193 -26 -248q0 -125 83.5 -204t220.5 -79q114 0 198 60t120 157q18 49 43 225l78 544h137l-56 -412q-40 -295 -85 -419.5t-160.5 -204.5t-281.5 -80q-189 0 -309.5 115.5t-120.5 288.5q0 69 11 161l10 96l5 41zM998 1492l57 -97
q-80 -52 -132.5 -70t-106.5 -18q-72 0 -143 37q-60 32 -77 37q-24 7 -50 7q-37 0 -70 -12.5t-99 -56.5l-52 102q105 97 238 97q64 0 148 -40q80 -39 126 -39q58 0 161 53z" />
    <glyph glyph-name="Umacron" unicode="&#x16a;" horiz-adv-x="1341" 
d="M233 1471h145l-111 -842q-22 -168 -22 -239q0 -138 79 -212.5t223 -74.5q101 0 179 34t132.5 99t77.5 150q40 148 69 374l92 711h145l-98 -743l-24 -182q-21 -127 -50 -216.5t-76 -158.5t-107 -113t-145.5 -69.5t-191.5 -25.5q-217 0 -335 110t-118 292q0 51 6 114
l22 172zM424 1776h690l-17 -119h-690z" />
    <glyph glyph-name="umacron" unicode="&#x16b;" horiz-adv-x="1245" 
d="M188 1088h140l-63 -455q-26 -193 -26 -248q0 -125 83.5 -204t220.5 -79q114 0 198 60t120 157q18 49 43 225l78 544h137l-56 -412q-40 -295 -85 -419.5t-160.5 -204.5t-281.5 -80q-189 0 -309.5 115.5t-120.5 288.5q0 69 11 161l10 96l5 41zM367 1479h690l-17 -119h-690z
" />
    <glyph glyph-name="Ubreve" unicode="&#x16c;" horiz-adv-x="1341" 
d="M233 1471h145l-111 -842q-22 -168 -22 -239q0 -138 79 -212.5t223 -74.5q101 0 179 34t132.5 99t77.5 150q40 148 69 374l92 711h145l-98 -743l-24 -182q-21 -127 -50 -216.5t-76 -158.5t-107 -113t-145.5 -69.5t-191.5 -25.5q-217 0 -335 110t-118 292q0 51 6 114
l22 172zM421 1823h132q53 -104 209 -104q82 0 135 22.5t105 81.5h128q-35 -90 -134.5 -150.5t-247.5 -60.5q-147 0 -231 60t-96 151z" />
    <glyph glyph-name="ubreve" unicode="&#x16d;" horiz-adv-x="1245" 
d="M188 1088h140l-63 -455q-26 -193 -26 -248q0 -125 83.5 -204t220.5 -79q114 0 198 60t120 157q18 49 43 225l78 544h137l-56 -412q-40 -295 -85 -419.5t-160.5 -204.5t-281.5 -80q-189 0 -309.5 115.5t-120.5 288.5q0 69 11 161l10 96l5 41zM364 1525h132
q53 -104 209 -104q82 0 135 22.5t105 81.5h128q-35 -90 -134.5 -150.5t-247.5 -60.5q-147 0 -231 60t-96 151z" />
    <glyph glyph-name="Uring" unicode="&#x16e;" horiz-adv-x="1341" 
d="M233 1471h145l-111 -842q-22 -168 -22 -239q0 -138 79 -212.5t223 -74.5q101 0 179 34t132.5 99t77.5 150q40 148 69 374l92 711h145l-98 -743l-24 -182q-21 -127 -50 -216.5t-76 -158.5t-107 -113t-145.5 -69.5t-191.5 -25.5q-217 0 -335 110t-118 292q0 51 6 114
l22 172zM765 1989q80 0 133 -52.5t53 -131.5q0 -96 -74.5 -169.5t-173.5 -73.5q-78 0 -130.5 53t-52.5 131q0 96 74 169.5t171 73.5zM749 1888q-50 0 -88 -38t-38 -87q0 -41 27 -68t68 -27q51 0 89 38t38 87q0 41 -27.5 68t-68.5 27z" />
    <glyph glyph-name="uring" unicode="&#x16f;" horiz-adv-x="1245" 
d="M188 1088h140l-63 -455q-26 -193 -26 -248q0 -125 83.5 -204t220.5 -79q114 0 198 60t120 157q18 49 43 225l78 544h137l-56 -412q-40 -295 -85 -419.5t-160.5 -204.5t-281.5 -80q-189 0 -309.5 115.5t-120.5 288.5q0 69 11 161l10 96l5 41zM715 1691q80 0 133 -52.5
t53 -131.5q0 -96 -74.5 -169.5t-173.5 -73.5q-78 0 -130.5 53t-52.5 131q0 96 74 169.5t171 73.5zM699 1590q-50 0 -88 -38t-38 -87q0 -41 27 -68t68 -27q51 0 89 38t38 87q0 41 -27.5 68t-68.5 27z" />
    <glyph glyph-name="Udblacute" unicode="&#x170;" horiz-adv-x="1341" 
d="M233 1471h145l-111 -842q-22 -168 -22 -239q0 -138 79 -212.5t223 -74.5q101 0 179 34t132.5 99t77.5 150q40 148 69 374l92 711h145l-98 -743l-24 -182q-21 -127 -50 -216.5t-76 -158.5t-107 -113t-145.5 -69.5t-191.5 -25.5q-217 0 -335 110t-118 292q0 51 6 114
l22 172zM744 1896h215l-339 -308h-138zM1060 1896h215l-339 -308h-138z" />
    <glyph glyph-name="udblacute" unicode="&#x171;" horiz-adv-x="1245" 
d="M188 1088h140l-63 -455q-26 -193 -26 -248q0 -125 83.5 -204t220.5 -79q114 0 198 60t120 157q18 49 43 225l78 544h137l-56 -412q-40 -295 -85 -419.5t-160.5 -204.5t-281.5 -80q-189 0 -309.5 115.5t-120.5 288.5q0 69 11 161l10 96l5 41zM746 1598h215l-339 -308h-138
zM1062 1598h215l-339 -308h-138z" />
    <glyph glyph-name="Uogonek" unicode="&#x172;" horiz-adv-x="1341" 
d="M233 1471h145l-111 -842q-22 -168 -22 -239q0 -138 79 -212.5t223 -74.5q101 0 179 34t132.5 99t77.5 150q40 148 69 374l92 711h145l-98 -743l-24 -182q-21 -127 -50 -216.5t-76 -158.5t-107 -113t-145.5 -69.5t-191.5 -25.5q-217 0 -335 110t-118 292q0 51 6 114
l22 172zM579 0h109q-149 -113 -149 -204q0 -44 32 -71.5t99 -27.5q30 0 70 5l-21 -85q-43 -10 -86 -10q-104 0 -154.5 45t-50.5 114q0 58 40 123.5t111 110.5z" />
    <glyph glyph-name="uogonek" unicode="&#x173;" horiz-adv-x="1245" 
d="M188 1088h140l-63 -455q-26 -193 -26 -248q0 -125 83.5 -204t220.5 -79q114 0 198 60t120 157q18 49 43 225l78 544h137l-56 -412q-40 -295 -85 -419.5t-160.5 -204.5t-281.5 -80q-189 0 -309.5 115.5t-120.5 288.5q0 69 11 161l10 96l5 41zM541 0h109
q-149 -113 -149 -204q0 -44 32 -71.5t99 -27.5q30 0 70 5l-21 -85q-43 -10 -86 -10q-104 0 -154.5 45t-50.5 114q0 58 40 123.5t111 110.5z" />
    <glyph glyph-name="Wcircumflex" unicode="&#x174;" horiz-adv-x="1966" 
d="M126 1471h143l204 -1093l569 1093h28l257 -1093l520 1093h155l-702 -1471h-27l-259 1108l-586 -1108h-27zM1031 1840h139l254 -257h-180l-155 152l-205 -152h-186z" />
    <glyph glyph-name="wcircumflex" unicode="&#x175;" horiz-adv-x="1702" 
d="M70 1088h139l224 -768l409 768h24l248 -776l400 776h150l-562 -1088h-28l-252 768l-409 -768h-26zM834 1542h139l254 -257h-180l-155 152l-205 -152h-186z" />
    <glyph glyph-name="Ycircumflex" unicode="&#x176;" horiz-adv-x="1212" 
d="M83 1471h154l315 -668l531 668h178l-652 -819l-89 -652h-144l89 660zM639 1840h139l254 -257h-180l-155 152l-205 -152h-186z" />
    <glyph glyph-name="ycircumflex" unicode="&#x177;" horiz-adv-x="1098" 
d="M47 1088h144l282 -803l466 803h155l-862 -1486h-157l308 531zM538 1542h139l254 -257h-180l-155 152l-205 -152h-186z" />
    <glyph glyph-name="Ydieresis" unicode="&#x178;" horiz-adv-x="1212" 
d="M83 1471h154l315 -668l531 668h178l-652 -819l-89 -652h-144l89 660zM507 1816q43 0 72 -29t29 -71q0 -52 -40.5 -92t-94.5 -40q-42 0 -70.5 28.5t-28.5 71.5q0 52 40 92t93 40zM915 1816q44 0 72.5 -29t28.5 -71q0 -52 -40.5 -92t-93.5 -40q-43 0 -71.5 28.5t-28.5 71.5
q0 52 40 92t93 40z" />
    <glyph glyph-name="Zacute" unicode="&#x179;" horiz-adv-x="983" 
d="M217 1471h756l-722 -1331h551l-19 -140h-770l725 1329h-540zM731 1895h215l-339 -308h-138z" />
    <glyph glyph-name="zacute" unicode="&#x17a;" horiz-adv-x="870" 
d="M92 1088h748l-650 -964h591l-16 -124h-822l653 965h-520zM631 1598h215l-339 -308h-138z" />
    <glyph glyph-name="Zdot" unicode="&#x17b;" horiz-adv-x="983" 
d="M217 1471h756l-722 -1331h551l-19 -140h-770l725 1329h-540zM563 1815q43 0 72 -29t29 -71q0 -52 -40.5 -92t-94.5 -40q-42 0 -70.5 28.5t-28.5 71.5q0 52 40 92t93 40z" />
    <glyph glyph-name="zdot" unicode="&#x17c;" horiz-adv-x="870" 
d="M92 1088h748l-650 -964h591l-16 -124h-822l653 965h-520zM433 1518q43 0 72 -29t29 -71q0 -52 -40.5 -92t-94.5 -40q-42 0 -70.5 28.5t-28.5 71.5q0 52 40 92t93 40z" />
    <glyph glyph-name="Zcaron" unicode="&#x17d;" horiz-adv-x="983" 
d="M217 1471h756l-722 -1331h551l-19 -140h-770l725 1329h-540zM629 1583h-139l-254 257h180l155 -152l205 152h186z" />
    <glyph glyph-name="zcaron" unicode="&#x17e;" horiz-adv-x="870" 
d="M92 1088h748l-650 -964h591l-16 -124h-822l653 965h-520zM574 1285h-139l-254 257h180l155 -152l205 152h186z" />
    <glyph glyph-name="longs" unicode="&#x17f;" horiz-adv-x="410" 
d="M598 1471l-19 -132q-74 72 -142 72q-33 0 -66 -33t-52 -174l-168 -1204h-137l166 1184q21 146 41.5 204.5t76 103t130.5 44.5q89 0 170 -65z" />
    <glyph glyph-name="florin" unicode="&#x192;" horiz-adv-x="1135" 
d="M597 882h231l-17 -122h-233l-107 -710q-29 -196 -74 -291t-110.5 -140t-136.5 -45q-68 0 -142 49l18 124q55 -45 111 -45q71 0 122.5 73t83.5 296l101 689h-141l17 122h141l49 319q28 184 65 239q66 96 166 96q83 0 177 -65l-18 -133q-77 73 -139 73q-49 0 -75.5 -45.5
t-46.5 -189.5z" />
    <glyph glyph-name="Aringacute" unicode="&#x1fa;" horiz-adv-x="1515" 
d="M852 1471l493 -1471h-151l-161 481h-623l-275 -481h-164l847 1471h34zM805 1163l-314 -542h496zM896 1830q80 0 133 -52.5t53 -131.5q0 -96 -74.5 -169.5t-173.5 -73.5q-78 0 -130.5 53t-52.5 131q0 96 74 169.5t171 73.5zM880 1729q-50 0 -88 -38t-38 -87q0 -41 27 -68
t68 -27q51 0 89 38t38 87q0 41 -27.5 68t-68.5 27zM956 2170h215l-339 -308h-138z" />
    <glyph glyph-name="aringacute" unicode="&#x1fb;" horiz-adv-x="1399" 
d="M1121 0h-141l21 164q-189 -192 -433 -192q-222 0 -365 143t-143 368q0 260 185.5 446.5t436.5 186.5q136 0 238.5 -57t175.5 -178l25 207h145zM583 100q135 0 246 63.5t176 182.5t65 259q0 169 -107 275t-278 106q-201 0 -344 -145t-143 -356q0 -173 107 -279t278 -106z
M799 1647q80 0 133 -52.5t53 -131.5q0 -96 -74.5 -169.5t-173.5 -73.5q-78 0 -130.5 53t-52.5 131q0 96 74 169.5t171 73.5zM783 1546q-50 0 -88 -38t-38 -87q0 -41 27 -68t68 -27q51 0 89 38t38 87q0 41 -27.5 68t-68.5 27zM884 2030h215l-339 -308h-138z" />
    <glyph glyph-name="AEacute" unicode="&#x1fc;" horiz-adv-x="2032" 
d="M1743 0h-832l65 478h-504l-346 -478h-159l1059 1471h895l-21 -143h-661l-65 -482h661l-19 -141h-662l-75 -564h680zM1092 1344l-519 -723h423zM1428 1895h215l-339 -308h-138z" />
    <glyph glyph-name="aeacute" unicode="&#x1fd;" horiz-adv-x="2370" 
d="M1149 1088h125l-22 -178q91 103 206.5 154.5t247.5 51.5q223 0 365 -140.5t142 -363.5q0 -45 -8 -96h-985l-3 -47q0 -98 51 -186t139 -135t205 -47q223 0 376 174l107 -79q-180 -224 -498 -224q-156 0 -262 56.5t-180 171.5l-27 -200h-124l21 170q-103 -104 -213.5 -151
t-243.5 -47q-229 0 -362 139q-148 153 -148 382q0 255 184.5 439t436.5 184q160 0 275 -70q86 -53 165 -177zM683 987q-228 0 -368 -169q-120 -143 -120 -331q0 -172 109 -278.5t289 -106.5q134 0 247.5 64t179 180.5t65.5 241.5q0 108 -53 203t-142.5 145.5t-206.5 50.5z
M2081 635q-5 149 -102.5 249.5t-270.5 100.5q-166 0 -290 -93.5t-173 -256.5h836zM1332 1598h215l-339 -308h-138z" />
    <glyph glyph-name="Oslashacute" unicode="&#x1fe;" horiz-adv-x="1778" 
d="M1461 1302q186 -191 186 -481q0 -362 -250.5 -609.5t-622.5 -247.5q-233 0 -398 100l-132 -151l-98 88l126 144q-200 194 -200 506q0 236 113.5 433t316 311t441.5 114q235 0 416 -121l121 139l102 -87zM367 255l898 1027q-137 88 -330 88q-195 0 -361.5 -94
t-261.5 -261.5t-95 -357.5q0 -118 40 -223t110 -179zM1367 1195l-894 -1021q132 -72 299 -72q197 0 366.5 95.5t265.5 265t96 366.5q0 217 -133 366zM1086 1895h215l-339 -308h-138z" />
    <glyph glyph-name="oslashacute" unicode="&#x1ff;" horiz-adv-x="1337" 
d="M1071 931q108 -143 108 -335q0 -171 -82.5 -317.5t-223 -226.5t-316.5 -80q-156 0 -264 66l-129 -149l-101 87l127 146q-136 146 -136 359q0 173 82.5 319.5t226.5 231t307 84.5q178 0 305 -92l121 139l103 -84zM282 228l604 694q-95 61 -219 61t-238 -66t-175 -179
t-61 -249q0 -153 89 -261zM980 827l-594 -682q85 -43 187 -43q131 0 237.5 62.5t169.5 180.5t63 252q0 128 -63 230zM866 1598h215l-339 -308h-138z" />
    <glyph glyph-name="circumflex" unicode="&#x2c6;" horiz-adv-x="1028" 
d="M556 1542h139l254 -257h-180l-155 152l-205 -152h-186z" />
    <glyph glyph-name="caron" unicode="&#x2c7;" horiz-adv-x="1028" 
d="M652 1285h-139l-254 257h180l155 -152l205 152h186z" />
    <glyph glyph-name="macron" unicode="&#x2c9;" horiz-adv-x="993" 
d="M251 1479h690l-17 -119h-690z" />
    <glyph glyph-name="breve" unicode="&#x2d8;" horiz-adv-x="928" 
d="M215 1525h132q53 -104 209 -104q82 0 135 22.5t105 81.5h128q-35 -90 -134.5 -150.5t-247.5 -60.5q-147 0 -231 60t-96 151z" />
    <glyph glyph-name="dotaccent" unicode="&#x2d9;" horiz-adv-x="455" 
d="M333 1518q43 0 72 -29t29 -71q0 -52 -40.5 -92t-94.5 -40q-42 0 -70.5 28.5t-28.5 71.5q0 52 40 92t93 40z" />
    <glyph glyph-name="ring" unicode="&#x2da;" horiz-adv-x="680" 
d="M471 1691q80 0 133 -52.5t53 -131.5q0 -96 -74.5 -169.5t-173.5 -73.5q-78 0 -130.5 53t-52.5 131q0 96 74 169.5t171 73.5zM455 1590q-50 0 -88 -38t-38 -87q0 -41 27 -68t68 -27q51 0 89 38t38 87q0 41 -27.5 68t-68.5 27z" />
    <glyph glyph-name="ogonek" unicode="&#x2db;" horiz-adv-x="618" 
d="M311 0h109q-149 -113 -149 -204q0 -44 32 -71.5t99 -27.5q30 0 70 5l-21 -85q-43 -10 -86 -10q-104 0 -154.5 45t-50.5 114q0 58 40 123.5t111 110.5z" />
    <glyph glyph-name="tilde" unicode="&#x2dc;" horiz-adv-x="899" 
d="M835 1492l57 -97q-80 -52 -132.5 -70t-106.5 -18q-72 0 -143 37q-60 32 -77 37q-24 7 -50 7q-37 0 -70 -12.5t-99 -56.5l-52 102q105 97 238 97q64 0 148 -40q80 -39 126 -39q58 0 161 53z" />
    <glyph glyph-name="hungarumlaut" unicode="&#x2dd;" horiz-adv-x="1130" 
d="M592 1598h215l-339 -308h-138zM908 1598h215l-339 -308h-138z" />
    <glyph glyph-name="tonos" unicode="&#x384;" horiz-adv-x="774" 
d="M541 1598l-73 -338h-118l16 338h175z" />
    <glyph glyph-name="dieresistonos" unicode="&#x385;" horiz-adv-x="774" 
d="M541 1598l-73 -338h-118l16 338h175zM659 1291q-78 0 -78 76q1 42 31.5 72t70.5 30q77 0 77 -76q0 -41 -30.5 -71.5t-70.5 -30.5zM167 1291q-78 0 -78 76q0 42 31.5 72t70.5 30q78 0 78 -76q0 -41 -31 -71.5t-71 -30.5z" />
    <glyph glyph-name="Alphatonos" unicode="&#x386;" horiz-adv-x="1515" 
d="M852 1471l493 -1471h-151l-161 481h-623l-275 -481h-164l847 1471h34zM805 1163l-314 -542h496zM479 1508l-73 -338h-118l16 338h175z" />
    <glyph glyph-name="anoteleia" unicode="&#x387;" horiz-adv-x="567" 
d="M427 994q0 -52 -35.5 -87t-86.5 -35q-52 0 -87 35t-35 87q0 50 35.5 86t86.5 36t86.5 -35.5t35.5 -86.5z" />
    <glyph glyph-name="Epsilontonos" unicode="&#x388;" horiz-adv-x="1188" 
d="M1146 1471l-21 -143h-662l-65 -482h662l-19 -141h-662l-75 -564h662l-17 -141h-811l197 1471h811zM130 1508l-73 -338h-118l16 338h175z" />
    <glyph glyph-name="Etatonos" unicode="&#x389;" horiz-adv-x="1489" 
d="M335 1471h145l-79 -598h753l80 598h143l-193 -1471h-144l97 734h-757l-96 -734h-146zM130 1508l-73 -338h-118l16 338h175z" />
    <glyph glyph-name="Iotatonos" unicode="&#x38a;" horiz-adv-x="553" 
d="M328 1471h148l-199 -1471h-148zM130 1508l-73 -338h-118l16 338h175z" />
    <glyph glyph-name="Omicrontonos" unicode="&#x38c;" horiz-adv-x="1780" 
d="M956 1508q297 0 494.5 -195t197.5 -493q0 -363 -250.5 -610t-624.5 -247q-318 0 -509 190t-191 497q0 237 114.5 435t317 310.5t451.5 112.5zM953 1369q-211 0 -376.5 -92t-262 -261t-96.5 -360q0 -162 70 -290.5t193.5 -196.5t290.5 -68q198 0 367 95.5t265.5 265
t96.5 366.5q0 261 -183 414q-152 127 -365 127zM130 1508l-73 -338h-118l16 338h175z" />
    <glyph glyph-name="Upsilontonos" unicode="&#x38e;" horiz-adv-x="1322" 
d="M193 1471h154l315 -668l531 668h178l-652 -819l-89 -652h-144l89 660zM130 1508l-73 -338h-118l16 338h175z" />
    <glyph glyph-name="Omegatonos" unicode="&#x38f;" horiz-adv-x="1713" 
d="M985 138h440l-18 -138h-571l26 196q560 289 560 711q1 213 -140.5 337t-371.5 124q-280 0 -469 -185t-190 -451q0 -129 65 -243.5t309 -292.5l-26 -196h-551l18 138h423q-384 263 -384 597q0 319 232 545.5t592 226.5q288 0 464.5 -164.5t176.5 -420.5q0 -523 -585 -784z
M129 1508l-73 -338h-118l16 338h175z" />
    <glyph glyph-name="iotadieresistonos" unicode="&#x390;" horiz-adv-x="410" 
d="M165 1088h133l-145 -1088h-138zM377 1598l-73 -338h-118l16 338h175zM495 1291q-78 0 -78 76q1 42 31.5 72t70.5 30q77 0 77 -76q0 -41 -30.5 -71.5t-70.5 -30.5zM3 1291q-78 0 -78 76q0 42 31.5 72t70.5 30q78 0 78 -76q0 -41 -31 -71.5t-71 -30.5z" />
    <glyph glyph-name="Alpha" unicode="&#x391;" horiz-adv-x="1515" 
d="M852 1471l493 -1471h-151l-161 481h-623l-275 -481h-164l847 1471h34zM805 1163l-314 -542h496z" />
    <glyph glyph-name="Beta" unicode="&#x392;" horiz-adv-x="1176" 
d="M246 1471h189q278 0 376 -33.5t158.5 -116.5t60.5 -196q0 -118 -64 -211t-172 -134q130 -40 204 -136.5t74 -228.5q0 -135 -63.5 -232t-170.5 -140t-369 -43h-419zM373 1331l-66 -488q43 -4 100 -4q200 0 288.5 32t137.5 100.5t49 151.5q0 108 -76.5 159.5t-325.5 51.5
q-43 0 -107 -3zM289 699l-74 -560h199q208 0 286 17q110 25 166.5 90.5t56.5 168.5q0 92 -46 153.5t-151 96t-314 34.5h-123z" />
    <glyph glyph-name="Gamma" unicode="&#x393;" horiz-adv-x="946" 
d="M962 1331h-591l-177 -1331h-146l196 1471h737z" />
    <glyph glyph-name="Delta" unicode="&#x394;" horiz-adv-x="1515" 
d="M1337 0h-1417l891 1471h36zM1137 140l-344 1024l-619 -1024h963z" />
    <glyph glyph-name="Epsilon" unicode="&#x395;" horiz-adv-x="1098" 
d="M1056 1471l-21 -143h-662l-65 -482h662l-19 -141h-662l-75 -564h662l-17 -141h-811l197 1471h811z" />
    <glyph glyph-name="Zeta" unicode="&#x396;" horiz-adv-x="983" 
d="M217 1471h756l-722 -1331h551l-19 -140h-770l725 1329h-540z" />
    <glyph glyph-name="Eta" unicode="&#x397;" horiz-adv-x="1399" 
d="M245 1471h145l-79 -598h753l80 598h143l-193 -1471h-144l97 734h-757l-96 -734h-146z" />
    <glyph glyph-name="Theta" unicode="&#x398;" horiz-adv-x="1780" 
d="M1648 820q0 -368 -251 -612.5t-624 -244.5q-315 0 -507.5 187.5t-192.5 499.5q0 363 251.5 610.5t631.5 247.5q300 0 496 -195t196 -493zM218 656q0 -241 148 -398t406 -157q308 0 518.5 210t210.5 517q0 243 -158.5 392t-389.5 149q-339 0 -537 -213t-198 -500z
M1217 674h-737l19 140h737z" />
    <glyph glyph-name="Iota" unicode="&#x399;" horiz-adv-x="463" 
d="M238 1471h148l-199 -1471h-148z" />
    <glyph glyph-name="Kappa" unicode="&#x39a;" horiz-adv-x="1210" 
d="M243 1471h145l-79 -597l689 597h211l-797 -688l690 -783h-188l-625 710l-98 -710h-144z" />
    <glyph glyph-name="Lambda" unicode="&#x39b;" horiz-adv-x="1438" 
d="M1266 0h-148l-365 1165l-683 -1165h-163l862 1471h34z" />
    <glyph glyph-name="Mu" unicode="&#x39c;" horiz-adv-x="1882" 
d="M1642 1471v-1471h-138v1014l-638 -1014h-37l-381 1050l-302 -1050h-149l425 1471h24l430 -1195l743 1195h23z" />
    <glyph glyph-name="Nu" unicode="&#x39d;" horiz-adv-x="1515" 
d="M1265 1471h144l-199 -1471h-32l-828 1140l-154 -1140h-146l198 1471h32l830 -1142z" />
    <glyph glyph-name="Xi" unicode="&#x39e;" horiz-adv-x="1087" 
d="M1020 1331h-857l19 140h857zM939 724h-857l19 140h857zM843 0h-857l18 140h857z" />
    <glyph glyph-name="Omicron" unicode="&#x39f;" horiz-adv-x="1780" 
d="M956 1508q297 0 494.5 -195t197.5 -493q0 -363 -250.5 -610t-624.5 -247q-318 0 -509 190t-191 497q0 237 114.5 435t317 310.5t451.5 112.5zM953 1369q-211 0 -376.5 -92t-262 -261t-96.5 -360q0 -162 70 -290.5t193.5 -196.5t290.5 -68q198 0 367 95.5t265.5 265
t96.5 366.5q0 261 -183 414q-152 127 -365 127z" />
    <glyph glyph-name="Pi" unicode="&#x3a0;" horiz-adv-x="1399" 
d="M1092 0h-145l177 1331h-754l-177 -1331h-145l196 1471h1044z" />
    <glyph glyph-name="Rho" unicode="&#x3a1;" horiz-adv-x="1212" 
d="M262 1471h401q199 0 285.5 -37t138.5 -118.5t52 -192.5q0 -145 -82 -252.5t-207 -146.5q-91 -29 -321 -29h-223l-94 -695h-147zM392 1329l-68 -489h205q207 0 286.5 28.5t128 98t48.5 154.5q0 70 -33 119t-91 69t-213 20h-263z" />
    <glyph glyph-name="Sigma" unicode="&#x3a3;" horiz-adv-x="1027" 
d="M798 0h-861l509 734l-307 737h840l-19 -142h-606l254 -608l-397 -578h606z" />
    <glyph glyph-name="Tau" unicode="&#x3a4;" horiz-adv-x="872" 
d="M73 1471h879l-19 -140h-375l-177 -1331h-147l177 1331h-357z" />
    <glyph glyph-name="Upsilon" unicode="&#x3a5;" horiz-adv-x="1212" 
d="M83 1471h154l315 -668l531 668h178l-652 -819l-89 -652h-144l89 660z" />
    <glyph glyph-name="Phi" unicode="&#x3a6;" horiz-adv-x="1760" 
d="M842 145l-19 -145h-144l19 145q-291 20 -461.5 159t-170.5 366q0 309 213 484t579 191l17 126h144l-17 -126q292 -20 462.5 -159.5t170.5 -366.5q0 -311 -211.5 -485.5t-581.5 -188.5zM716 282l124 927q-626 -39 -626 -529q0 -365 502 -398zM984 1209l-124 -927
q626 39 626 527q0 366 -502 400z" />
    <glyph glyph-name="Chi" unicode="&#x3a7;" horiz-adv-x="1247" 
d="M217 1471h156l260 -572l433 572h172l-540 -713l348 -758h-155l-288 627l-476 -627h-173l584 771z" />
    <glyph glyph-name="Psi" unicode="&#x3a8;" horiz-adv-x="1620" 
d="M1479 964q-27 -205 -85.5 -310t-201.5 -193.5t-391 -101.5l-48 -359h-144l48 359q-529 31 -529 449q0 69 13 167l66 496h147l-60 -448q-15 -117 -15 -186q0 -155 89 -236.5t308 -99.5l129 970h144l-129 -970q129 2 301 82t219 440l60 448h147z" />
    <glyph glyph-name="Omega" unicode="&#x3a9;" horiz-adv-x="1713" 
d="M985 138h440l-18 -138h-571l26 196q560 289 560 711q1 213 -140.5 337t-371.5 124q-280 0 -469 -185t-190 -451q0 -129 65 -243.5t309 -292.5l-26 -196h-551l18 138h423q-384 263 -384 597q0 319 232 545.5t592 226.5q288 0 464.5 -164.5t176.5 -420.5q0 -523 -585 -784z
" />
    <glyph glyph-name="Iotadieresis" unicode="&#x3aa;" horiz-adv-x="463" 
d="M238 1471h148l-199 -1471h-148zM169 1816q43 0 72 -29t29 -71q0 -52 -40.5 -92t-94.5 -40q-42 0 -70.5 28.5t-28.5 71.5q0 52 40 92t93 40zM577 1816q44 0 72.5 -29t28.5 -71q0 -52 -40.5 -92t-93.5 -40q-43 0 -71.5 28.5t-28.5 71.5q0 52 40 92t93 40z" />
    <glyph glyph-name="Upsilondieresis" unicode="&#x3ab;" horiz-adv-x="1212" 
d="M83 1471h154l315 -668l531 668h178l-652 -819l-89 -652h-144l89 660zM507 1816q43 0 72 -29t29 -71q0 -52 -40.5 -92t-94.5 -40q-42 0 -70.5 28.5t-28.5 71.5q0 52 40 92t93 40zM915 1816q44 0 72.5 -29t28.5 -71q0 -52 -40.5 -92t-93.5 -40q-43 0 -71.5 28.5t-28.5 71.5
q0 52 40 92t93 40z" />
    <glyph glyph-name="alphatonos" unicode="&#x3ac;" horiz-adv-x="1399" 
d="M1121 0h-141l21 164q-189 -192 -433 -192q-222 0 -365 143t-143 368q0 260 185.5 446.5t436.5 186.5q136 0 238.5 -57t175.5 -178l25 207h145zM583 100q135 0 246 63.5t176 182.5t65 259q0 169 -107 275t-278 106q-201 0 -344 -145t-143 -356q0 -173 107 -279t278 -106z
M870 1598l-73 -338h-118l16 338h175z" />
    <glyph glyph-name="epsilontonos" unicode="&#x3ad;" horiz-adv-x="866" 
d="M713 116q-155 -145 -378 -145q-141 0 -231 81t-90 211q0 237 230 332q-117 70 -117 192q0 140 103.5 235.5t258.5 95.5q165 0 295 -123l-92 -97q-102 88 -215 88q-100 0 -158 -59.5t-58 -145.5q0 -65 45.5 -108t119.5 -43h73l-16 -120h-86q-94 0 -166.5 -66t-72.5 -172
q0 -170 206 -170q158 0 274 114zM604 1598l-73 -338h-118l16 338h175z" />
    <glyph glyph-name="etatonos" unicode="&#x3ae;" horiz-adv-x="1249" 
d="M192 1088h134l-21 -167q165 195 384 195q170 0 272 -104t102 -278q0 -72 -22 -235l-121 -897h-138l120 897q22 164 22 236q0 114 -68 184t-182 70q-132 0 -258.5 -94t-172.5 -425l-65 -470h-137zM795 1598l-73 -338h-118l16 338h175z" />
    <glyph glyph-name="iotatonos" unicode="&#x3af;" horiz-adv-x="410" 
d="M164 1088h133l-145 -1088h-138zM379 1598l-73 -338h-118l16 338h175z" />
    <glyph glyph-name="upsilondieresistonos" unicode="&#x3b0;" horiz-adv-x="1219" 
d="M154 1088h138l-68 -508q-15 -113 -15 -180q0 -297 290 -297q192 0 306.5 143.5t113.5 357.5q0 239 -192 392l88 121q246 -204 246 -485q0 -292 -156 -476t-426 -184q-409 0 -409 407q0 76 14 185zM781 1598l-73 -338h-118l16 338h175zM899 1291q-78 0 -78 76
q1 42 31.5 72t70.5 30q77 0 77 -76q0 -41 -30.5 -71.5t-70.5 -30.5zM407 1291q-78 0 -78 76q0 42 31.5 72t70.5 30q78 0 78 -76q0 -41 -31 -71.5t-71 -30.5z" />
    <glyph glyph-name="alpha" unicode="&#x3b1;" horiz-adv-x="1399" 
d="M1121 0h-141l21 164q-189 -192 -433 -192q-222 0 -365 143t-143 368q0 260 185.5 446.5t436.5 186.5q136 0 238.5 -57t175.5 -178l25 207h145zM583 100q135 0 246 63.5t176 182.5t65 259q0 169 -107 275t-278 106q-201 0 -344 -145t-143 -356q0 -173 107 -279t278 -106z
" />
    <glyph glyph-name="beta" unicode="&#x3b2;" horiz-adv-x="1221" 
d="M194 197l-79 -595h-141l200 1505q28 206 143 317.5t305 111.5q150 0 238.5 -82.5t88.5 -218.5q0 -255 -260 -335q158 -16 258.5 -134.5t100.5 -284.5q0 -237 -139 -373t-377 -136q-223 0 -338 225zM413 805l16 117q169 4 272.5 81.5t103.5 209.5q0 89 -48 141t-132 52
q-138 0 -214 -77t-100 -255l-78 -584q-4 -26 -4 -50q0 -140 88 -240t231 -100q171 0 264.5 99t93.5 280q0 326 -423 326h-70z" />
    <glyph glyph-name="gamma" unicode="&#x3b3;" horiz-adv-x="1135" 
d="M517 104l-67 -502h-138l71 535l-327 951h143l275 -796l458 796h152z" />
    <glyph glyph-name="delta" unicode="&#x3b4;" horiz-adv-x="1171" 
d="M457 906q-129 96 -129 245q0 164 132 274.5t321 110.5q126 0 234 -28l-53 -125q-80 22 -188 22q-133 0 -217.5 -64.5t-84.5 -176.5q0 -71 51.5 -123t220.5 -124q280 -118 280 -392q0 -225 -156 -389t-395 -164q-179 0 -300 122t-121 301q0 165 103.5 305t301.5 206z
M880 506q1 124 -83 212t-212 88q-157 0 -273.5 -122t-116.5 -281q0 -128 83 -213t213 -85q179 0 284 120t105 281zM585 939z" />
    <glyph glyph-name="epsilon" unicode="&#x3b5;" horiz-adv-x="866" 
d="M734 116q-155 -145 -378 -145q-141 0 -231 81t-90 211q0 237 230 332q-117 70 -117 192q0 140 103.5 235.5t258.5 95.5q165 0 295 -123l-92 -97q-102 88 -215 88q-100 0 -158 -59.5t-58 -145.5q0 -65 45.5 -108t119.5 -43h73l-16 -120h-86q-94 0 -166.5 -66t-72.5 -172
q0 -170 206 -170q158 0 274 114z" />
    <glyph glyph-name="zeta" unicode="&#x3b6;" horiz-adv-x="953" 
d="M205 -406l53 126q61 -16 116 -16q270 0 270 168q0 54 -49.5 87t-193.5 61q-351 70 -351 397q0 231 169 457.5t573 510.5h-503l17 123h674l-16 -123q-386 -290 -579.5 -505t-194.5 -452q0 -118 62 -184.5t231 -102.5q174 -37 239.5 -94.5t65.5 -148.5q0 -144 -101 -234
t-320 -90q-87 0 -162 20z" />
    <glyph glyph-name="eta" unicode="&#x3b7;" horiz-adv-x="1249" 
d="M192 1088h134l-21 -167q165 195 384 195q170 0 272 -104t102 -278q0 -72 -22 -235l-121 -897h-138l120 897q22 164 22 236q0 114 -68 184t-182 70q-132 0 -258.5 -94t-172.5 -425l-65 -470h-137z" />
    <glyph glyph-name="theta" unicode="&#x3b8;" horiz-adv-x="1341" 
d="M538 -28q-228 0 -351.5 161t-123.5 441q0 383 182.5 672.5t501.5 289.5q243 0 358 -172.5t115 -433.5q0 -386 -181 -672t-501 -286zM1077 816q5 55 5 106q0 233 -90 359.5t-262 126.5q-190 0 -323 -160.5t-183 -431.5h853zM1061 693h-854q-6 -64 -6 -123q0 -470 354 -470
q195 0 326.5 157t179.5 436z" />
    <glyph glyph-name="iota" unicode="&#x3b9;" horiz-adv-x="410" 
d="M164 1088h133l-145 -1088h-138z" />
    <glyph glyph-name="kappa" unicode="&#x3ba;" horiz-adv-x="1028" 
d="M194 1089h136l-57 -404l524 403h218l-632 -486l557 -602h-186l-502 540l-73 -540h-140z" />
    <glyph glyph-name="lambda" unicode="&#x3bb;" horiz-adv-x="1098" 
d="M941 0h-143l-251 838l-486 -838h-148l581 1006l-153 502h142z" />
    <glyph glyph-name="mu" unicode="&#x3bc;" horiz-adv-x="1249" 
d="M1100 1088l-151 -1088h-134l21 167q-128 -195 -368 -195q-216 0 -297 144l-73 -514h-137l207 1486h138l-67 -499q-23 -168 -23 -233q0 -118 70 -187.5t181 -69.5q125 0 219 64t138.5 155t73.5 300l65 470h137z" />
    <glyph glyph-name="nu" unicode="&#x3bd;" horiz-adv-x="1135" 
d="M56 1088h143l275 -796l458 796h152l-627 -1088h-26z" />
    <glyph glyph-name="xi" unicode="&#x3be;" horiz-adv-x="953" 
d="M205 -406l53 126q61 -16 116 -16q270 0 270 169q0 49 -44 79t-180 60q-208 46 -290.5 146t-82.5 243q0 376 378 485q-198 98 -198 268q0 164 134 273t350 109q154 0 274 -37l-51 -134q-109 40 -260 40q-135 0 -220 -75t-85 -182q0 -100 101.5 -159t245.5 -59h119
l-16 -122h-202q-179 0 -302 -102t-124 -296q0 -106 54.5 -168t215.5 -98q198 -45 262.5 -102.5t64.5 -144.5q1 -142 -100 -232.5t-321 -90.5q-87 0 -162 20z" />
    <glyph glyph-name="omicron" unicode="&#x3bf;" horiz-adv-x="1341" 
d="M680 1116q139 0 255 -66.5t181 -185t65 -268.5q0 -171 -83 -317.5t-223 -226.5t-317 -80q-219 0 -360.5 143.5t-141.5 365.5q0 174 83 321t227.5 230.5t313.5 83.5zM677 983q-130 0 -244.5 -65t-176 -178.5t-61.5 -250.5q0 -172 106 -279.5t274 -107.5q131 0 237.5 62.5
t169.5 180.5t63 253q0 113 -47 200.5t-133 136t-188 48.5z" />
    <glyph glyph-name="pi" unicode="&#x3c0;" horiz-adv-x="1373" 
d="M1323 965h-225l-129 -965h-137l129 965h-549l-129 -965h-137l129 965h-225l16 123h1273z" />
    <glyph glyph-name="rho" unicode="&#x3c1;" horiz-adv-x="1372" 
d="M181 211l-81 -609h-138l127 912q46 328 229 465t394 137q212 0 356.5 -145.5t144.5 -374.5q0 -256 -174 -440t-449 -184q-265 0 -409 239zM227 489q0 -171 104.5 -279t275.5 -108q214 0 342 147t128 349q0 186 -110 285.5t-258 99.5q-201 0 -341.5 -139t-140.5 -355z" />
    <glyph glyph-name="sigma1" unicode="&#x3c2;" horiz-adv-x="1185" 
d="M1139 906l-112 -70q-120 148 -358 148q-205 0 -345.5 -149t-140.5 -366q0 -130 78 -205.5t291 -116.5q212 -40 286 -97t74 -152q0 -144 -101 -234t-320 -90q-87 0 -162 20l53 126q61 -16 116 -16q270 0 270 167q0 54 -52 87t-220 62q-455 80 -455 439q0 268 187 462.5
t455 194.5q164 0 267.5 -49.5t188.5 -160.5z" />
    <glyph glyph-name="sigma" unicode="&#x3c3;" horiz-adv-x="1468" 
d="M850 1088h594l-16 -123h-385q138 -148 138 -369q0 -256 -174 -440t-449 -184q-220 0 -361 142.5t-141 366.5q0 268 182 451.5t442 183.5q90 0 170 -28zM195 489q0 -171 104.5 -279t275.5 -108q222 0 346 152t124 344q0 186 -110 285.5t-258 99.5q-201 0 -341.5 -139
t-140.5 -355z" />
    <glyph glyph-name="tau" unicode="&#x3c4;" horiz-adv-x="823" 
d="M773 965h-292l-129 -965h-138l129 965h-293l16 123h723z" />
    <glyph glyph-name="upsilon" unicode="&#x3c5;" horiz-adv-x="1219" 
d="M154 1088h138l-68 -508q-15 -113 -15 -180q0 -297 290 -297q192 0 306.5 143.5t113.5 357.5q0 239 -192 392l88 121q246 -204 246 -485q0 -292 -156 -476t-426 -184q-409 0 -409 407q0 76 14 185z" />
    <glyph glyph-name="phi" unicode="&#x3c6;" horiz-adv-x="1568" 
d="M723 -26l-49 -372h-141l49 373q-245 17 -391.5 150t-146.5 348q0 211 133 372.5t366 243.5l27 -133q-386 -141 -386 -475q0 -332 417 -368l133 1000q40 3 70 3q288 0 448 -142t160 -371q1 -293 -182 -456.5t-507 -172.5zM857 979l-115 -869q530 25 530 486
q0 175 -109.5 276t-305.5 107z" />
    <glyph glyph-name="chi" unicode="&#x3c7;" horiz-adv-x="983" 
d="M965 1088l-476 -709l315 -777h-150l-258 638l-429 -638h-161l529 789l-282 697h148l226 -559l375 559h163z" />
    <glyph glyph-name="psi" unicode="&#x3c8;" horiz-adv-x="1507" 
d="M1316 554q-21 -162 -69 -275.5t-190.5 -202.5t-366.5 -102l-49 -372h-138l49 372q-484 41 -484 429q0 66 13 161l70 524h140l-64 -478q-16 -120 -16 -188q0 -181 111.5 -241.5t247.5 -69.5l131 977h138l-131 -978q171 14 276 80.5t141 154t59 265.5l64 478h140z" />
    <glyph glyph-name="omega" unicode="&#x3c9;" horiz-adv-x="1756" 
d="M775 199q-42 -103 -134.5 -165t-205.5 -62q-184 0 -292.5 113t-108.5 312q1 284 194 489t491 230l-6 -132q-227 -17 -384 -180.5t-157 -410.5q0 -293 269 -293q117 0 197 99.5t105 288.5l18 134h142l-18 -134q-9 -67 -9 -122q0 -266 207 -266q194 0 282 134t87 317
q0 182 -109 300t-295 132l29 133q224 -11 369.5 -169t145.5 -385q0 -234 -127 -412t-410 -178q-108 0 -186.5 64.5t-93.5 162.5z" />
    <glyph glyph-name="iotadieresis" unicode="&#x3ca;" horiz-adv-x="410" 
d="M164 1088h133l-145 -1088h-138zM106 1518q43 0 72 -29t29 -71q0 -52 -40.5 -92t-94.5 -40q-42 0 -70.5 28.5t-28.5 71.5q0 52 40 92t93 40zM514 1518q44 0 72.5 -29t28.5 -71q0 -52 -40.5 -92t-93.5 -40q-43 0 -71.5 28.5t-28.5 71.5q0 52 40 92t93 40z" />
    <glyph glyph-name="upsilondieresis" unicode="&#x3cb;" horiz-adv-x="1219" 
d="M154 1088h138l-68 -508q-15 -113 -15 -180q0 -297 290 -297q192 0 306.5 143.5t113.5 357.5q0 239 -192 392l88 121q246 -204 246 -485q0 -292 -156 -476t-426 -184q-409 0 -409 407q0 76 14 185zM479 1518q43 0 72 -29t29 -71q0 -52 -40.5 -92t-94.5 -40
q-42 0 -70.5 28.5t-28.5 71.5q0 52 40 92t93 40zM887 1518q44 0 72.5 -29t28.5 -71q0 -52 -40.5 -92t-93.5 -40q-43 0 -71.5 28.5t-28.5 71.5q0 52 40 92t93 40z" />
    <glyph glyph-name="omicrontonos" unicode="&#x3cc;" horiz-adv-x="1341" 
d="M680 1116q139 0 255 -66.5t181 -185t65 -268.5q0 -171 -83 -317.5t-223 -226.5t-317 -80q-219 0 -360.5 143.5t-141.5 365.5q0 174 83 321t227.5 230.5t313.5 83.5zM677 983q-130 0 -244.5 -65t-176 -178.5t-61.5 -250.5q0 -172 106 -279.5t274 -107.5q131 0 237.5 62.5
t169.5 180.5t63 253q0 113 -47 200.5t-133 136t-188 48.5zM841 1598l-73 -338h-118l16 338h175z" />
    <glyph glyph-name="upsilontonos" unicode="&#x3cd;" horiz-adv-x="1219" 
d="M154 1088h138l-68 -508q-15 -113 -15 -180q0 -297 290 -297q192 0 306.5 143.5t113.5 357.5q0 239 -192 392l88 121q246 -204 246 -485q0 -292 -156 -476t-426 -184q-409 0 -409 407q0 76 14 185zM781 1598l-73 -338h-118l16 338h175z" />
    <glyph glyph-name="omegatonos" unicode="&#x3ce;" horiz-adv-x="1756" 
d="M775 199q-42 -103 -134.5 -165t-205.5 -62q-184 0 -292.5 113t-108.5 312q1 284 194 489t491 230l-6 -132q-227 -17 -384 -180.5t-157 -410.5q0 -293 269 -293q117 0 197 99.5t105 288.5l18 134h142l-18 -134q-9 -67 -9 -122q0 -266 207 -266q194 0 282 134t87 317
q0 182 -109 300t-295 132l29 133q224 -11 369.5 -169t145.5 -385q0 -234 -127 -412t-410 -178q-108 0 -186.5 64.5t-93.5 162.5zM1049 1598l-73 -338h-118l16 338h175z" />
    <glyph glyph-name="afii10023" unicode="&#x401;" horiz-adv-x="1098" 
d="M1056 1471l-21 -143h-662l-65 -482h662l-19 -141h-662l-75 -564h662l-17 -141h-811l197 1471h811zM485 1816q43 0 72 -29t29 -71q0 -52 -40.5 -92t-94.5 -40q-42 0 -70.5 28.5t-28.5 71.5q0 52 40 92t93 40zM893 1816q44 0 72.5 -29t28.5 -71q0 -52 -40.5 -92t-93.5 -40
q-43 0 -71.5 28.5t-28.5 71.5q0 52 40 92t93 40z" />
    <glyph glyph-name="afii10051" unicode="&#x402;" horiz-adv-x="1296" 
d="M453 711l-99 -711h-150l180 1328h-329l19 143h808l-20 -143h-328l-63 -472h125q333 0 450.5 -104t117.5 -304q0 -189 -97.5 -336t-275.5 -147q-126 0 -242 89l75 99q85 -58 160 -58q107 0 165.5 113t58.5 234q0 162 -94 215.5t-296 53.5h-165z" />
    <glyph glyph-name="afii10052" unicode="&#x403;" horiz-adv-x="920" 
d="M194 0h-146l199 1471h737l-20 -145h-591zM772 1895h215l-339 -308h-138z" />
    <glyph glyph-name="afii10053" unicode="&#x404;" horiz-adv-x="1608" 
d="M244 814h690l-20 -145h-689q-2 -31 -2 -47q0 -210 159 -365t417 -155q309 0 548 242l105 -88q-272 -293 -676 -293q-340 0 -522 189t-182 475q0 364 267 622.5t638 258.5q205 0 362.5 -82t240.5 -228l-128 -89q-161 254 -492 254q-233 0 -435 -145t-281 -404z" />
    <glyph glyph-name="afii10054" unicode="&#x405;" horiz-adv-x="1020" 
d="M927 1199l-139 -35q-28 93 -92 147t-138 54q-82 0 -133.5 -55.5t-51.5 -148.5q0 -82 55 -171q34 -56 164 -174q135 -122 188.5 -227.5t53.5 -206.5q0 -107 -58.5 -206t-157.5 -156t-210 -57q-141 0 -244.5 90t-148.5 264l136 46q32 -132 104 -196t166 -64q107 0 184 79
t77 195q0 85 -43.5 166t-170.5 195q-136 124 -177 190q-67 110 -67 232q0 151 98.5 249.5t244.5 98.5q123 0 219 -78t141 -231z" />
    <glyph glyph-name="afii10055" unicode="&#x406;" horiz-adv-x="463" 
d="M238 1471h148l-199 -1471h-148z" />
    <glyph glyph-name="afii10056" unicode="&#x407;" horiz-adv-x="463" 
d="M239 1471h148l-199 -1471h-148zM169 1816q43 0 72 -29t29 -71q0 -52 -40.5 -92t-94.5 -40q-42 0 -70.5 28.5t-28.5 71.5q0 52 40 92t93 40zM577 1816q44 0 72.5 -29t28.5 -71q0 -52 -40.5 -92t-93.5 -40q-43 0 -71.5 28.5t-28.5 71.5q0 52 40 92t93 40z" />
    <glyph glyph-name="afii10057" unicode="&#x408;" horiz-adv-x="987" 
d="M680 1471h145l-133 -1014q-30 -229 -69.5 -314.5t-116 -132.5t-177.5 -47q-93 0 -179 40.5t-175 136.5l113 80q125 -121 244 -121q90 0 145 82q42 62 69 265z" />
    <glyph glyph-name="afii10058" unicode="&#x409;" horiz-adv-x="2130" 
d="M827 1471l222 -631h308q400 0 520.5 -123.5t120.5 -298.5q0 -167 -106.5 -292.5t-477.5 -125.5h-257l-389 1159l-708 -1159h-162l894 1471h35zM1268 142h46q239 0 322.5 12.5t144 81t60.5 182.5q0 103 -55.5 171.5t-149.5 87.5t-280 19h-273z" />
    <glyph glyph-name="afii10059" unicode="&#x40a;" horiz-adv-x="2085" 
d="M312 855h747l83 616h148l-83 -616h106q356 0 497 -110t141 -306q0 -121 -49.5 -215t-131.5 -145t-167.5 -65t-365.5 -14h-293l96 711h-748l-96 -711h-148l199 1471h148zM1111 142h157q201 0 265 6t126.5 39t98 96t35.5 154q0 105 -54 169.5t-154 84.5t-273 20h-124z" />
    <glyph glyph-name="afii10060" unicode="&#x40b;" horiz-adv-x="1296" 
d="M354 0h-150l180 1328h-329l19 143h808l-20 -143h-328l-65 -473h182q297 0 406 -79t109 -237q0 -57 -15 -169l-49 -370h-143l54 377q11 77 11 139q0 116 -83 155.5t-225 39.5h-263z" />
    <glyph glyph-name="afii10061" unicode="&#x40c;" horiz-adv-x="1173" 
d="M231 1471h150l-83 -611l670 611h199l-735 -656l591 -815h-195l-512 713l-43 -37l-91 -676h-150zM821 1895h215l-339 -308h-138z" />
    <glyph glyph-name="afii10062" unicode="&#x40e;" horiz-adv-x="1276" 
d="M133 1467h166l309 -999l544 1003h160l-736 -1322q-104 -186 -303 -186q-77 0 -145 32.5t-160 153.5l118 88q97 -109 132 -124t73 -15q58 0 104.5 31t114.5 155zM383 1818h132q53 -104 209 -104q82 0 135 22.5t105 81.5h128q-35 -90 -134.5 -150.5t-247.5 -60.5
q-147 0 -231 60t-96 151z" />
    <glyph glyph-name="afii10145" unicode="&#x40f;" horiz-adv-x="1333" 
d="M469 0h-421l199 1471h148l-180 -1332h678l181 1332h148l-199 -1471h-417l-30 -220h-137z" />
    <glyph glyph-name="afii10017" unicode="&#x410;" horiz-adv-x="1515" 
d="M852 1471l493 -1471h-151l-161 481h-623l-275 -481h-164l847 1471h34zM805 1163l-314 -542h496z" />
    <glyph glyph-name="afii10018" unicode="&#x411;" horiz-adv-x="1126" 
d="M48 0l199 1471h744l-20 -145h-591l-65 -456h65q371 0 492 -132t121 -316q0 -146 -75.5 -250.5t-183 -138t-279.5 -33.5h-407zM297 729l-78 -585h178q176 0 255 18t135 85.5t56 179.5q0 111 -56 185.5t-143 95.5t-268 21h-79z" />
    <glyph glyph-name="afii10019" unicode="&#x412;" horiz-adv-x="1176" 
d="M246 1471h189q278 0 376 -33.5t158.5 -116.5t60.5 -196q0 -118 -64 -211t-172 -134q130 -40 204 -136.5t74 -228.5q0 -135 -63.5 -232t-170.5 -140t-369 -43h-419zM373 1331l-66 -488q43 -4 100 -4q200 0 288.5 32t137.5 100.5t49 151.5q0 108 -76.5 159.5t-325.5 51.5
q-43 0 -107 -3zM289 699l-74 -560h199q208 0 286 17q110 25 166.5 90.5t56.5 168.5q0 92 -46 153.5t-151 96t-314 34.5h-123z" />
    <glyph glyph-name="afii10020" unicode="&#x413;" horiz-adv-x="917" 
d="M194 0h-146l199 1471h737l-20 -145h-591z" />
    <glyph glyph-name="afii10021" unicode="&#x414;" horiz-adv-x="1468" 
d="M-12 -220h-145l48 357h120l758 1334h50l429 -1334h115l-48 -357h-145l29 220h-1181zM165 137h935l-341 1058z" />
    <glyph glyph-name="afii10022" unicode="&#x415;" horiz-adv-x="1098" 
d="M1056 1471l-21 -143h-662l-65 -482h662l-19 -141h-662l-75 -564h662l-17 -141h-811l197 1471h811z" />
    <glyph glyph-name="afii10024" unicode="&#x416;" horiz-adv-x="1800" 
d="M933 663l-87 -663h-150l93 671l-47 55l-693 -726h-181l795 818l-535 653h158l519 -653l90 653h150l-87 -653l674 653h167l-708 -673l575 -798h-172l-498 718z" />
    <glyph glyph-name="afii10025" unicode="&#x417;" horiz-adv-x="1090" 
d="M154 1328q172 181 401 181q169 0 270 -99.5t101 -254.5q0 -274 -272 -370q246 -113 246 -365q0 -202 -135 -330t-361 -128q-342 0 -501 299l114 60q108 -156 196.5 -192.5t186.5 -36.5q176 0 262.5 99.5t86.5 219.5q0 123 -83 216.5t-303 93.5h-25l16 118h49
q211 0 295 93t84 218q0 110 -69.5 168t-173.5 58q-148 0 -297 -138z" />
    <glyph glyph-name="afii10026" unicode="&#x418;" horiz-adv-x="1487" 
d="M1176 0h-152l152 1127l-1074 -1127h-54l199 1471h146l-155 -1147l1091 1147h46z" />
    <glyph glyph-name="afii10027" unicode="&#x419;" horiz-adv-x="1487" 
d="M1176 0h-152l152 1127l-1074 -1127h-54l199 1471h146l-155 -1147l1091 1147h46zM494 1818h132q53 -104 209 -104q82 0 135 22.5t105 81.5h128q-35 -90 -134.5 -150.5t-247.5 -60.5q-147 0 -231 60t-96 151z" />
    <glyph glyph-name="afii10028" unicode="&#x41a;" horiz-adv-x="1182" 
d="M245 1471h150l-83 -611l670 611h199l-735 -656l591 -815h-195l-512 713l-43 -37l-91 -676h-150z" />
    <glyph glyph-name="afii10029" unicode="&#x41b;" horiz-adv-x="1477" 
d="M1164 0l-386 1190l-727 -1190h-154l894 1471h35l488 -1471h-150z" />
    <glyph glyph-name="afii10030" unicode="&#x41c;" horiz-adv-x="1882" 
d="M1642 1471v-1471h-138v1014l-638 -1014h-37l-381 1050l-302 -1050h-149l425 1471h24l430 -1195l743 1195h23z" />
    <glyph glyph-name="afii10031" unicode="&#x41d;" horiz-adv-x="1399" 
d="M245 1471h145l-79 -598h753l80 598h143l-193 -1471h-144l97 734h-757l-96 -734h-146z" />
    <glyph glyph-name="afii10032" unicode="&#x41e;" horiz-adv-x="1780" 
d="M956 1508q297 0 494.5 -195t197.5 -493q0 -363 -250.5 -610t-624.5 -247q-318 0 -509 190t-191 497q0 237 114.5 435t317 310.5t451.5 112.5zM953 1369q-211 0 -376.5 -92t-262 -261t-96.5 -360q0 -162 70 -290.5t193.5 -196.5t290.5 -68q198 0 367 95.5t265.5 265
t96.5 366.5q0 261 -183 414q-152 127 -365 127z" />
    <glyph glyph-name="afii10033" unicode="&#x41f;" horiz-adv-x="1401" 
d="M247 1471h1043l-198 -1471h-148l180 1331h-748l-180 -1331h-148z" />
    <glyph glyph-name="afii10034" unicode="&#x420;" horiz-adv-x="1212" 
d="M262 1471h401q199 0 285.5 -37t138.5 -118.5t52 -192.5q0 -145 -82 -252.5t-207 -146.5q-91 -29 -321 -29h-223l-94 -695h-147zM392 1329l-68 -489h205q207 0 286.5 28.5t128 98t48.5 154.5q0 70 -33 119t-91 69t-213 20h-263z" />
    <glyph glyph-name="afii10035" unicode="&#x421;" horiz-adv-x="1665" 
d="M1576 1268l-89 -123q-234 220 -533 220q-195 0 -364.5 -95t-265 -256t-95.5 -346q0 -165 73.5 -293t212.5 -200.5t318 -72.5q273 0 509 173l82 -117q-175 -115 -301 -155t-291 -40q-305 0 -497 153q-255 205 -255 547q0 353 255 599t634 246q173 0 315 -54.5t292 -185.5z
" />
    <glyph glyph-name="afii10036" unicode="&#x422;" horiz-adv-x="872" 
d="M73 1471h879l-19 -140h-375l-177 -1331h-147l177 1331h-357z" />
    <glyph glyph-name="afii10037" unicode="&#x423;" horiz-adv-x="1276" 
d="M133 1467h166l309 -999l544 1003h160l-736 -1322q-104 -186 -303 -186q-77 0 -145 32.5t-160 153.5l118 88q97 -109 132 -124t73 -15q58 0 104.5 31t114.5 155z" />
    <glyph glyph-name="afii10038" unicode="&#x424;" horiz-adv-x="1679" 
d="M780 0h-147l57 424h-124q-524 0 -524 378q0 165 124.5 322t514.5 157h130l26 190h138l-24 -190h113q310 0 424.5 -106.5t114.5 -277.5q0 -150 -85 -268.5t-206 -161.5t-350 -43h-125zM710 566l78 573h-136q-197 0 -282.5 -38.5t-131 -122t-45.5 -171.5q0 -130 95 -185.5
t287 -55.5h135zM933 1139l-78 -573h136q190 0 273 34.5t135.5 114t52.5 176.5q0 136 -92.5 192t-291.5 56h-135z" />
    <glyph glyph-name="afii10039" unicode="&#x425;" horiz-adv-x="1247" 
d="M217 1471h156l260 -572l433 572h172l-540 -713l348 -758h-155l-288 627l-476 -627h-173l584 771z" />
    <glyph glyph-name="afii10040" unicode="&#x426;" horiz-adv-x="1366" 
d="M1138 0h-1090l199 1471h148l-180 -1333h678l181 1333h148l-181 -1333h253l-49 -360h-138z" />
    <glyph glyph-name="afii10041" unicode="&#x427;" horiz-adv-x="1169" 
d="M826 836l86 635h147l-199 -1471h-147l94 699h-106q-247 0 -355.5 21t-171.5 94.5t-63 213.5q0 51 14 151l39 292h143l-41 -301q-12 -92 -12 -133q0 -85 36.5 -129t97 -58t189.5 -14h249z" />
    <glyph glyph-name="afii10042" unicode="&#x428;" horiz-adv-x="2069" 
d="M215 139h628l180 1332h148l-180 -1332h637l180 1332h148l-198 -1471h-1710l199 1471h148z" />
    <glyph glyph-name="afii10043" unicode="&#x429;" horiz-adv-x="2128" 
d="M1777 139h277l-48 -359h-138l30 220h-1850l199 1471h148l-180 -1332h632l181 1332h148l-180 -1332h632l181 1332h148zM2069 0z" />
    <glyph glyph-name="afii10044" unicode="&#x42a;" horiz-adv-x="1315" 
d="M349 1333h-328l19 138h481l-85 -631h175q191 0 271 -23.5t151 -81t110 -142t39 -180.5q0 -155 -89.5 -260t-201.5 -129t-426 -24h-296zM342 143h153q207 0 267 3t120.5 33.5t95.5 90t35 144.5q0 121 -74.5 201.5t-280.5 80.5h-241z" />
    <glyph glyph-name="afii10045" unicode="&#x42b;" horiz-adv-x="1645" 
d="M1387 1471h147l-199 -1471h-147zM48 0l199 1471h146l-85 -631h175l77 1q230 0 362.5 -121t132.5 -307q0 -155 -90 -260t-202 -129t-426 -24h-289zM214 143h153q208 0 267.5 3t120 33.5t95.5 90t35 144.5q0 120 -74 201t-281 81h-241z" />
    <glyph glyph-name="afii10046" unicode="&#x42c;" horiz-adv-x="1186" 
d="M48 0l199 1471h146l-85 -631h175h77q230 0 362 -121t132 -306q0 -156 -90 -260.5t-202 -128.5t-425 -24h-289zM214 143h153q207 0 267 3t120.5 33.5t95.5 90t35 144.5q0 120 -75 201t-280 81h-241z" />
    <glyph glyph-name="afii10047" unicode="&#x42d;" horiz-adv-x="1608" 
d="M1298 669h-689l19 145h688q3 41 3 63q0 198 -148.5 342t-407.5 144q-156 0 -273 -53t-285 -203l-106 91q298 310 686 310q305 0 501 -180.5t196 -474.5q0 -362 -234.5 -626t-657.5 -264q-427 0 -619 293l128 88q174 -242 484 -242q262 0 460 147t255 420z" />
    <glyph glyph-name="afii10048" unicode="&#x42e;" horiz-adv-x="2230" 
d="M305 814h258q90 342 330.5 518t526.5 176q307 0 496.5 -190.5t189.5 -466.5q0 -360 -265 -624t-620 -264q-174 0 -310.5 63t-225.5 178.5t-114.5 225.5t-25.5 247h-258l-92 -677h-147l199 1471h147zM1954 843q0 210 -149.5 366t-398.5 156q-298 0 -504.5 -220.5
t-206.5 -510.5q0 -224 155.5 -376t385.5 -152q287 0 502.5 213.5t215.5 523.5z" />
    <glyph glyph-name="afii10049" unicode="&#x42f;" horiz-adv-x="1212" 
d="M1101 1471l-199 -1471h-147l89 663h-139l-562 -663h-182l563 663q-66 0 -178 38t-167 128.5t-55 202.5q0 143 84 254.5t196.5 148t316.5 36.5h380zM934 1327h-259q-150 0 -224 -27t-124.5 -102t-50.5 -166q0 -106 68 -168t275 -62h244z" />
    <glyph glyph-name="afii10065" unicode="&#x430;" horiz-adv-x="1399" 
d="M1121 0h-141l21 164q-189 -192 -433 -192q-222 0 -365 143t-143 368q0 260 185.5 446.5t436.5 186.5q136 0 238.5 -57t175.5 -178l25 207h145zM583 100q135 0 246 63.5t176 182.5t65 259q0 169 -107 275t-278 106q-201 0 -344 -145t-143 -356q0 -173 107 -279t278 -106z
" />
    <glyph glyph-name="afii10066" unicode="&#x431;" horiz-adv-x="1382" 
d="M1303 1531l-19 -134q-105 -18 -277 -22q-275 -7 -399 -39.5t-216 -138.5t-134 -289l-34 -153q166 361 530 361q213 0 351.5 -142t138.5 -354q0 -254 -192 -451t-457 -197q-227 0 -367.5 150.5t-140.5 413.5q0 220 59 430.5t168.5 330t273 165.5t528.5 55q111 3 187 14z
M1099 597q0 165 -106.5 273.5t-261.5 108.5q-192 0 -340 -154t-148 -347q0 -164 103.5 -268.5t266.5 -104.5q199 0 342.5 149.5t143.5 342.5zM232 538z" />
    <glyph glyph-name="afii10067" unicode="&#x432;" horiz-adv-x="958" 
d="M41 0l147 1088h299q137 0 219 -76t82 -190q0 -183 -190 -246q99 -35 151.5 -113t52.5 -169q0 -120 -85.5 -207.5t-234.5 -87.5l-125 1h-316zM266 627h92q116 0 167.5 13.5t88 56.5t36.5 114q0 60 -29.5 98.5t-75.5 48t-141 9.5h-92zM196 118h162l78 -1q231 0 231 187
q0 73 -39.5 122t-90.5 61t-162 12h-128z" />
    <glyph glyph-name="afii10068" unicode="&#x433;" horiz-adv-x="719" 
d="M311 965l-131 -965h-139l147 1088h550l-16 -123h-411z" />
    <glyph glyph-name="afii10069" unicode="&#x434;" horiz-adv-x="1208" 
d="M35 119l550 969h74l286 -969h131l-35 -258h-136l19 139h-900l-19 -145h-138l36 264h132zM590 857l-408 -738h611z" />
    <glyph glyph-name="afii10070" unicode="&#x435;" horiz-adv-x="1331" 
d="M1166 516h-970q-3 -194 101 -305t277 -111q115 0 213 47t162 132l104 -85q-79 -101 -206.5 -161.5t-275.5 -60.5q-256 0 -384.5 158.5t-128.5 356.5q0 162 86.5 312t231.5 233.5t314 83.5q209 0 346 -141.5t137 -360.5q0 -40 -7 -98zM1038 637q-6 154 -105 249.5
t-249 95.5q-163 0 -287.5 -92t-176.5 -253h818z" />
    <glyph glyph-name="afii10072" unicode="&#x436;" horiz-adv-x="1599" 
d="M754 1088h142l-68 -491l587 491h171l-591 -491l470 -597h-166l-403 526l-86 -67l-62 -459h-141l62 459l-70 67l-540 -526h-179l630 603l-440 485h156l459 -503z" />
    <glyph glyph-name="afii10073" unicode="&#x437;" horiz-adv-x="872" 
d="M291 630h72q88 0 151.5 56.5t63.5 143.5q0 76 -51 118t-133 42q-108 0 -224 -92l-66 97q136 122 313 122q132 0 215.5 -76.5t83.5 -194.5q0 -170 -177 -268q153 -87 153 -258q0 -153 -100 -250.5t-285 -97.5q-217 0 -368 144l94 92q122 -116 270 -116q117 0 183 66
t66 167q0 83 -56.5 134t-132.5 51h-88z" />
    <glyph glyph-name="afii10074" unicode="&#x438;" horiz-adv-x="1249" 
d="M325 1088l-105 -782l874 782h11l-148 -1088h-140l104 775l-863 -775h-17l144 1088h140z" />
    <glyph glyph-name="afii10075" unicode="&#x439;" horiz-adv-x="1249" 
d="M325 1088l-105 -782l874 782h11l-148 -1088h-140l104 775l-863 -775h-17l144 1088h140zM358 1525h132q53 -104 209 -104q82 0 135 22.5t105 81.5h128q-35 -90 -134.5 -150.5t-247.5 -60.5q-147 0 -231 60t-96 151z" />
    <glyph glyph-name="afii10076" unicode="&#x43a;" horiz-adv-x="1051" 
d="M188 1088h141l-62 -458l565 458h206l-618 -498l504 -590h-198l-432 503l-49 -39l-63 -464h-141z" />
    <glyph glyph-name="afii10077" unicode="&#x43b;" horiz-adv-x="1061" 
d="M926 0h-149l-258 792l-468 -792h-149l645 1088h25z" />
    <glyph glyph-name="afii10078" unicode="&#x43c;" horiz-adv-x="1735" 
d="M1312 1088h40l195 -1088h-137l-138 808l-516 -808h-41l-303 803l-344 -803h-140l472 1088h38l329 -856z" />
    <glyph glyph-name="afii10079" unicode="&#x43d;" horiz-adv-x="1249" 
d="M272 656h630l62 432h141l-151 -1088h-141l72 524h-631l-72 -524h-141l151 1088h141z" />
    <glyph glyph-name="afii10080" unicode="&#x43e;" horiz-adv-x="1341" 
d="M680 1116q139 0 255 -66.5t181 -185t65 -268.5q0 -171 -83 -317.5t-223 -226.5t-317 -80q-219 0 -360.5 143.5t-141.5 365.5q0 174 83 321t227.5 230.5t313.5 83.5zM677 983q-130 0 -244.5 -65t-176 -178.5t-61.5 -250.5q0 -172 106 -279.5t274 -107.5q131 0 237.5 62.5
t169.5 180.5t63 253q0 113 -47 200.5t-133 136t-188 48.5z" />
    <glyph glyph-name="afii10081" unicode="&#x43f;" horiz-adv-x="1249" 
d="M188 1088h917l-147 -1088h-141l130 956h-637l-129 -956h-140z" />
    <glyph glyph-name="afii10082" unicode="&#x440;" horiz-adv-x="1397" 
d="M204 1088h142l-21 -163q189 191 432 191q223 0 365.5 -143t142.5 -368q0 -260 -185 -446.5t-436 -186.5q-136 0 -239 57.5t-175 178.5l-79 -606h-145zM742 988q-134 0 -245.5 -63.5t-176.5 -182.5t-65 -259q0 -169 107.5 -275t277.5 -106q201 0 344 145t143 356
q0 173 -106.5 279t-278.5 106z" />
    <glyph glyph-name="afii10083" unicode="&#x441;" horiz-adv-x="1325" 
d="M1198 853l-115 -67q-121 196 -370 196q-144 0 -263 -64t-186 -178t-67 -244q0 -115 50 -206t140.5 -140t213.5 -49q126 0 240.5 50t178.5 129l115 -81q-108 -118 -234.5 -172.5t-293.5 -54.5q-258 0 -402.5 140.5t-144.5 374.5q0 260 189.5 444.5t464.5 184.5
q165 0 291 -69.5t193 -193.5z" />
    <glyph glyph-name="afii10084" unicode="&#x442;" horiz-adv-x="846" 
d="M83 1088h717l-17 -121h-288l-131 -967h-141l131 967h-287z" />
    <glyph glyph-name="afii10085" unicode="&#x443;" horiz-adv-x="1098" 
d="M47 1088h144l282 -803l466 803h155l-862 -1486h-157l308 531z" />
    <glyph glyph-name="afii10086" unicode="&#x444;" horiz-adv-x="2202" 
d="M1114 1508h138l-88 -641q134 243 423 243q206 0 340 -134.5t134 -345.5q0 -297 -180.5 -480.5t-436.5 -183.5q-294 0 -370 229l-79 -593h-139l78 593q-111 -228 -402 -228q-211 0 -350.5 139.5t-139.5 349.5q0 284 186.5 469t436.5 185q290 0 362 -243zM1113 451
q0 -199 104.5 -278t202.5 -79q220 0 360 153.5t140 363.5q0 168 -100 270t-262 102q-196 0 -320.5 -154t-124.5 -378zM188 472q0 -161 98 -268t272 -107q100 0 217 71t164.5 199t47.5 267q0 138 -51.5 211t-118.5 105.5t-143 32.5q-197 0 -341.5 -152.5t-144.5 -358.5z" />
    <glyph glyph-name="afii10087" unicode="&#x445;" horiz-adv-x="983" 
d="M36 1088h158l265 -425l311 425h168l-403 -548l329 -540h-159l-258 418l-307 -418h-168l399 540z" />
    <glyph glyph-name="afii10088" unicode="&#x446;" horiz-adv-x="1294" 
d="M1035 0h-995l147 1088h141l-130 -956h611l129 956h141l-128 -956h235l-41 -304h-132z" />
    <glyph glyph-name="afii10089" unicode="&#x447;" horiz-adv-x="948" 
d="M584 491h-209q-106 0 -170 18.5t-110.5 78.5t-46.5 148q0 26 7 82l35 270h138l-26 -197q-15 -111 -15 -133q0 -84 37 -116t161 -32h213l65 478h141l-147 -1088h-139z" />
    <glyph glyph-name="afii10090" unicode="&#x448;" horiz-adv-x="1956" 
d="M1667 0h-1627l147 1088h143l-129 -956h598l129 956h143l-128 -956h599l127 956h142z" />
    <glyph glyph-name="afii10091" unicode="&#x449;" horiz-adv-x="2017" 
d="M41 0l147 1088h143l-129 -956h598l129 956h143l-128 -956h599l127 956h142l-126 -956h223l-41 -304h-120l22 172h-1729zM1956 0z" />
    <glyph glyph-name="afii10092" unicode="&#x44a;" horiz-adv-x="1034" 
d="M82 0l130 960h-244l17 128h382l-57 -431h182q179 0 279 -93.5t100 -243.5q0 -95 -40.5 -166.5t-122 -111t-263.5 -42.5h-363zM298 524l-55 -406h161q134 0 190.5 15t96 63.5t39.5 120.5q0 100 -77 153.5t-209 53.5h-146z" />
    <glyph glyph-name="afii10093" unicode="&#x44b;" horiz-adv-x="1432" 
d="M1146 1088h141l-147 -1088h-141zM269 656h181q191 0 286 -98t95 -233q0 -144 -93 -234.5t-335 -90.5h-362l147 1088h139zM256 524l-55 -406h161q135 0 191 15t95.5 63.5t39.5 120.5q0 100 -76.5 153.5t-208.5 53.5h-147z" />
    <glyph glyph-name="afii10094" unicode="&#x44c;" horiz-adv-x="995" 
d="M267 656h182q194 0 288.5 -101t94.5 -233q0 -102 -44.5 -174t-131 -110t-254.5 -38h-362l147 1088h139zM255 524l-55 -406h161q135 0 191 15t95.5 63.5t39.5 120.5q0 100 -76.5 153.5t-208.5 53.5h-147z" />
    <glyph glyph-name="afii10095" unicode="&#x44d;" horiz-adv-x="1311" 
d="M1000 503h-491l16 120h484q-6 169 -119.5 265t-281.5 96q-262 0 -419 -191l-106 71q206 252 537 252q230 0 382 -136t152 -375q0 -260 -177.5 -446.5t-471.5 -186.5q-375 0 -505 246l121 73q126 -191 367 -191q181 0 319.5 99t192.5 304z" />
    <glyph glyph-name="afii10096" unicode="&#x44e;" horiz-adv-x="1726" 
d="M182 0h-141l147 1088h141l-62 -457h183q52 227 226 356t392 129q224 0 362.5 -140t138.5 -360q0 -274 -184.5 -459t-452.5 -185q-219 0 -361 132t-142 389h-181zM1426 596q0 168 -107 275.5t-261 107.5q-208 0 -347.5 -146.5t-139.5 -349.5q0 -185 109.5 -281.5
t263.5 -96.5q199 0 340.5 144.5t141.5 346.5z" />
    <glyph glyph-name="afii10097" unicode="&#x44f;" horiz-adv-x="961" 
d="M669 0h-139l66 487h-98l-372 -487h-174l398 503q-101 26 -161.5 96t-60.5 159q0 144 89 237t267 93h332zM659 967h-92q-127 0 -177 -13t-87.5 -65t-37.5 -123q0 -87 62 -123.5t191 -36.5h92z" />
    <glyph glyph-name="afii10071" unicode="&#x451;" horiz-adv-x="1331" 
d="M1166 516h-970q-3 -194 101 -305t277 -111q115 0 213 47t162 132l104 -85q-79 -101 -206.5 -161.5t-275.5 -60.5q-256 0 -384.5 158.5t-128.5 356.5q0 162 86.5 312t231.5 233.5t314 83.5q209 0 346 -141.5t137 -360.5q0 -40 -7 -98zM1038 637q-6 154 -105 249.5
t-249 95.5q-163 0 -287.5 -92t-176.5 -253h818zM566 1518q43 0 72 -29t29 -71q0 -52 -40.5 -92t-94.5 -40q-42 0 -70.5 28.5t-28.5 71.5q0 52 40 92t93 40zM974 1518q44 0 72.5 -29t28.5 -71q0 -52 -40.5 -92t-93.5 -40q-43 0 -71.5 28.5t-28.5 71.5q0 52 40 92t93 40z" />
    <glyph glyph-name="afii10099" unicode="&#x452;" horiz-adv-x="1249" 
d="M212 1252h-154l16 120h155l16 136h139l-16 -136h419l-16 -120h-419l-45 -329q168 193 384 193q158 0 265 -100t107 -266q0 -101 -20 -250l-69 -500l-12 -70q-37 -224 -89 -290t-137 -66q-55 0 -120 28l17 119q34 -22 70 -22q52 0 75.5 47.5t39.5 142.5l19 111l67 500
q19 140 19 234q0 128 -72.5 192t-177.5 64q-125 0 -224 -72t-140 -173t-64 -274l-64 -471h-140z" />
    <glyph glyph-name="afii10100" unicode="&#x453;" horiz-adv-x="719" 
d="M311 965l-131 -965h-139l147 1088h550l-16 -123h-411zM663 1596h215l-339 -308h-138z" />
    <glyph glyph-name="afii10101" unicode="&#x454;" horiz-adv-x="1305" 
d="M198 503q0 -203 120 -303t286 -100q241 0 418 191l102 -73q-91 -118 -236 -182t-298 -64q-236 0 -385 141t-149 350q0 303 198 478t466 175q150 0 286 -65t205 -189l-121 -69q-131 193 -391 193q-189 0 -324.5 -108.5t-159.5 -254.5h483l-16 -120h-484z" />
    <glyph glyph-name="afii10102" unicode="&#x455;" horiz-adv-x="795" 
d="M694 966l-76 -113q-92 131 -218 131q-72 0 -123 -47t-51 -104q0 -44 31 -84q30 -40 137 -109q156 -101 206 -176q49 -76 49 -175q0 -137 -95.5 -227t-248.5 -90q-202 0 -340 179l85 99q121 -147 263 -147q81 0 141 57t60 132q0 61 -45 117q-29 36 -156 122
q-137 94 -180 156q-43 61 -43 138q0 121 91 206t230 85q82 0 148.5 -33t134.5 -117z" />
    <glyph glyph-name="afii10103" unicode="&#x456;" horiz-adv-x="410" 
d="M274 1536q46 0 79 -33t33 -79q0 -47 -33 -79.5t-79 -32.5q-47 0 -79.5 32.5t-32.5 79.5q0 46 32.5 79t79.5 33zM164 1088h133l-145 -1088h-138z" />
    <glyph glyph-name="afii10104" unicode="&#x457;" horiz-adv-x="410" 
d="M165 1088h133l-145 -1088h-138zM106 1518q43 0 72 -29t29 -71q0 -52 -40.5 -92t-94.5 -40q-42 0 -70.5 28.5t-28.5 71.5q0 52 40 92t93 40zM514 1518q44 0 72.5 -29t28.5 -71q0 -52 -40.5 -92t-93.5 -40q-43 0 -71.5 28.5t-28.5 71.5q0 52 40 92t93 40z" />
    <glyph glyph-name="afii10105" unicode="&#x458;" horiz-adv-x="416" 
d="M281 1536q46 0 79 -33t33 -79q0 -47 -33 -79.5t-79 -32.5q-47 0 -80 32.5t-33 79.5q0 46 33 79t80 33zM170 1088h137l-159 -1158q-30 -215 -84.5 -285.5t-139.5 -70.5q-53 0 -121 28l17 119q37 -22 71 -22q41 0 64 32q33 48 48 156z" />
    <glyph glyph-name="afii10106" unicode="&#x459;" horiz-adv-x="1599" 
d="M549 1088l142 -432h310q210 0 319.5 -94t109.5 -244q0 -136 -97 -227t-264 -91h-315l-257 828l-478 -828h-140l645 1088h25zM730 524l129 -406h97q135 0 190.5 15t96 64t40.5 120q0 96 -75 151.5t-211 55.5h-267z" />
    <glyph glyph-name="afii10107" unicode="&#x45a;" horiz-adv-x="1757" 
d="M1041 656h129q211 0 319 -92.5t108 -239.5q0 -145 -93 -234.5t-334 -89.5h-357l71 524h-631l-72 -524h-141l147 1088h141l-57 -432h630l58 432h141zM1024 524l-55 -406h160q135 0 191 15t95.5 63.5t39.5 120.5q0 100 -76.5 153.5t-208.5 53.5h-146z" />
    <glyph glyph-name="afii10108" unicode="&#x45b;" horiz-adv-x="1249" 
d="M212 1252h-154l16 120h155l16 136h139l-16 -136h420l-17 -120h-419l-47 -331q172 195 388 195q145 0 257.5 -94t112.5 -278q0 -108 -18 -244l-69 -500h-138l68 500q21 151 21 239q0 112 -69.5 181.5t-183.5 69.5q-108 0 -200 -56.5t-146 -154.5t-83 -314l-64 -465h-140z
" />
    <glyph glyph-name="afii10109" unicode="&#x45c;" horiz-adv-x="1051" 
d="M188 1088h141l-62 -458l565 458h206l-618 -498l504 -590h-198l-432 503l-49 -39l-63 -464h-141zM752 1598h215l-339 -308h-138z" />
    <glyph glyph-name="afii10110" unicode="&#x45e;" horiz-adv-x="1098" 
d="M47 1088h144l282 -803l466 803h155l-862 -1486h-157l308 531zM262 1525h132q53 -104 209 -104q82 0 135 22.5t105 81.5h128q-35 -90 -134.5 -150.5t-247.5 -60.5q-147 0 -231 60t-96 151z" />
    <glyph glyph-name="afii10193" unicode="&#x45f;" horiz-adv-x="1249" 
d="M439 0h-398l147 1088h141l-130 -956h637l128 956h141l-146 -1088h-387l-23 -172h-132z" />
    <glyph glyph-name="afii10050" unicode="&#x490;" horiz-adv-x="848" 
d="M193 0h-146l199 1471h517l33 210h141l-48 -355h-517z" />
    <glyph glyph-name="afii10098" unicode="&#x491;" horiz-adv-x="780" 
d="M346 965l-131 -965h-139l147 1088h439l22 135h134l-35 -258h-437z" />
    <glyph glyph-name="Wgrave" unicode="&#x1e80;" horiz-adv-x="1966" 
d="M126 1471h143l204 -1093l569 1093h28l257 -1093l520 1093h155l-702 -1471h-27l-259 1108l-586 -1108h-27zM1032 1895l175 -308h-138l-252 308h215z" />
    <glyph glyph-name="wgrave" unicode="&#x1e81;" horiz-adv-x="1702" 
d="M70 1088h139l224 -768l409 768h24l248 -776l400 776h150l-562 -1088h-28l-252 768l-409 -768h-26zM835 1598l175 -308h-138l-252 308h215z" />
    <glyph glyph-name="Wacute" unicode="&#x1e82;" horiz-adv-x="1966" 
d="M126 1471h143l204 -1093l569 1093h28l257 -1093l520 1093h155l-702 -1471h-27l-259 1108l-586 -1108h-27zM1261 1895h215l-339 -308h-138z" />
    <glyph glyph-name="wacute" unicode="&#x1e83;" horiz-adv-x="1702" 
d="M70 1088h139l224 -768l409 768h24l248 -776l400 776h150l-562 -1088h-28l-252 768l-409 -768h-26zM1064 1598h215l-339 -308h-138z" />
    <glyph glyph-name="Wdieresis" unicode="&#x1e84;" horiz-adv-x="1966" 
d="M126 1471h143l204 -1093l569 1093h28l257 -1093l520 1093h155l-702 -1471h-27l-259 1108l-586 -1108h-27zM914 1816q43 0 72 -29t29 -71q0 -52 -40.5 -92t-94.5 -40q-42 0 -70.5 28.5t-28.5 71.5q0 52 40 92t93 40zM1322 1816q44 0 72.5 -29t28.5 -71q0 -52 -40.5 -92
t-93.5 -40q-43 0 -71.5 28.5t-28.5 71.5q0 52 40 92t93 40z" />
    <glyph glyph-name="wdieresis" unicode="&#x1e85;" horiz-adv-x="1702" 
d="M70 1088h139l224 -768l409 768h24l248 -776l400 776h150l-562 -1088h-28l-252 768l-409 -768h-26zM705 1518q43 0 72 -29t29 -71q0 -52 -40.5 -92t-94.5 -40q-42 0 -70.5 28.5t-28.5 71.5q0 52 40 92t93 40zM1113 1518q44 0 72.5 -29t28.5 -71q0 -52 -40.5 -92t-93.5 -40
q-43 0 -71.5 28.5t-28.5 71.5q0 52 40 92t93 40z" />
    <glyph glyph-name="Ygrave" unicode="&#x1ef2;" horiz-adv-x="1212" 
d="M83 1471h154l315 -668l531 668h178l-652 -819l-89 -652h-144l89 660zM615 1895l175 -308h-138l-252 308h215z" />
    <glyph glyph-name="ygrave" unicode="&#x1ef3;" horiz-adv-x="1098" 
d="M47 1088h144l282 -803l466 803h155l-862 -1486h-157l308 531zM539 1598l175 -308h-138l-252 308h215z" />
    <glyph glyph-name="endash" unicode="&#x2013;" horiz-adv-x="1024" 
d="M-12 637h1048v-129h-1048v129z" />
    <glyph glyph-name="emdash" unicode="&#x2014;" horiz-adv-x="2048" 
d="M-12 637h2072v-129h-2072v129z" />
    <glyph glyph-name="afii00208" unicode="&#x2015;" horiz-adv-x="1536" 
d="M-66 637h1560v-129h-1560v129z" />
    <glyph glyph-name="underscoredbl" unicode="&#x2017;" horiz-adv-x="1024" 
d="M-12 -118h1048v-103h-1048v103zM-12 -296h1048v-102h-1048v102z" />
    <glyph glyph-name="quoteleft" unicode="&#x2018;" horiz-adv-x="719" 
d="M444 1508l72 -44q-55 -91 -72 -131t-30 -99h88l-39 -277h-176l13 123q15 155 47 245t97 183z" />
    <glyph glyph-name="quoteright" unicode="&#x2019;" horiz-adv-x="719" 
d="M359 957l-72 44q55 91 72 131t30 99h-88l38 277h177l-13 -123q-16 -156 -47.5 -245.5t-96.5 -182.5z" />
    <glyph glyph-name="quotesinglbase" unicode="&#x201a;" horiz-adv-x="725" 
d="M231 -274l-72 44q55 91 72 131t30 99h-88l38 277h177l-13 -123q-16 -156 -47.5 -245.5t-96.5 -182.5z" />
    <glyph glyph-name="quotereversed" unicode="&#x201b;" horiz-adv-x="719" 
d="M348 957q-45 104 -45 219q0 86 27 231l19 101h176l-41 -277h-86q-4 -36 -4 -55q0 -70 33 -176z" />
    <glyph glyph-name="quotedblleft" unicode="&#x201c;" horiz-adv-x="1028" 
d="M790 1508l72 -44q-55 -91 -72 -131t-30 -99h88l-39 -277h-176l13 123q15 155 47 245t97 183zM349 1508l72 -44q-55 -91 -72 -131t-30 -99h88l-39 -277h-176l13 123q15 155 47 245t97 183z" />
    <glyph glyph-name="quotedblright" unicode="&#x201d;" horiz-adv-x="991" 
d="M245 957l-72 44q55 91 72 131t30 99h-88l38 277h177l-13 -123q-16 -156 -47.5 -245.5t-96.5 -182.5zM686 957l-72 44q55 91 72 131t30 99h-88l38 277h177l-13 -123q-16 -156 -47.5 -245.5t-96.5 -182.5z" />
    <glyph glyph-name="quotedblbase" unicode="&#x201e;" horiz-adv-x="1028" 
d="M162 -274l-72 44q55 91 72 131t30 99h-88l38 277h177l-13 -123q-16 -156 -47.5 -245.5t-96.5 -182.5zM603 -274l-72 44q55 91 72 131t30 99h-88l38 277h177l-13 -123q-16 -156 -47.5 -245.5t-96.5 -182.5z" />
    <glyph glyph-name="dagger" unicode="&#x2020;" horiz-adv-x="1133" 
d="M575 1508h148l-87 -457l363 21l-21 -149l-357 26l-150 -1263h-152l205 1263l-364 -26l21 149l358 -21z" />
    <glyph glyph-name="daggerdbl" unicode="&#x2021;" horiz-adv-x="1133" 
d="M577 1508h148l-73 -354l361 23l-21 -148l-354 27l-41 -459l-87 -452l361 20l-21 -148l-354 28l-27 -359h-148l75 359l-361 -28l21 148l354 -20l39 452l89 459l-361 -27l21 148l354 -23z" />
    <glyph glyph-name="bullet" unicode="&#x2022;" horiz-adv-x="1241" 
d="M620 1053q127 0 217 -90t90 -217q0 -128 -90 -218t-217 -90t-217 90t-90 218q0 127 90 217t217 90z" />
    <glyph glyph-name="ellipsis" unicode="&#x2026;" horiz-adv-x="2048" 
d="M1024 216q51 0 86.5 -36t35.5 -86t-35.5 -86t-86.5 -36t-86.5 36t-35.5 86t35.5 86t86.5 36zM341 216q51 0 86.5 -36t35.5 -86t-35.5 -86t-86.5 -36t-86.5 36t-35.5 86t35.5 86t86.5 36zM1707 216q50 0 86 -36t36 -86t-36 -86t-86 -36q-51 0 -87 36t-36 86t36 86t87 36z
" />
    <glyph glyph-name="perthousand" unicode="&#x2030;" horiz-adv-x="2404" 
d="M1493 1536l-1307 -1638h-116l1202 1510q-89 -22 -186 -33t-201 -11q-50 0 -127 5q48 -78 48 -164q0 -168 -111.5 -281t-279.5 -113q-137 0 -222.5 85.5t-85.5 217.5q0 165 120 279.5t264 114.5q39 0 123 -17q159 -33 271 -33q123 0 249 19.5t255 58.5h104zM494 1399
q-108 0 -187.5 -82t-79.5 -192q0 -90 56 -149t143 -59q115 0 188 85.5t73 197.5q0 87 -54.5 143t-138.5 56zM1188 659q130 0 219.5 -87.5t89.5 -215.5q0 -155 -106 -274t-286 -119q-136 0 -221.5 85.5t-85.5 216.5q0 159 117 276.5t273 117.5zM1184 551q-108 0 -187.5 -82
t-79.5 -193q0 -90 56.5 -149t142.5 -59q116 0 189 85.5t73 197.5q0 87 -55 143.5t-139 56.5zM1980 659q130 0 219.5 -87.5t89.5 -215.5q0 -155 -106 -274t-286 -119q-136 0 -221.5 85.5t-85.5 216.5q0 159 117 276.5t273 117.5zM1977 551q-108 0 -188 -82t-80 -193
q0 -90 56.5 -149t143.5 -59q115 0 188 85.5t73 197.5q0 87 -55 143.5t-138 56.5z" />
    <glyph glyph-name="minute" unicode="&#x2032;" horiz-adv-x="405" 
d="M268 1045h-103l43 463h148z" />
    <glyph glyph-name="second" unicode="&#x2033;" horiz-adv-x="633" 
d="M576 1045h-104l44 463h148zM188 1045h-104l43 463h148z" />
    <glyph glyph-name="guilsinglleft" unicode="&#x2039;" horiz-adv-x="514" 
d="M326 1088h152l-302 -550l142 -538h-136l-149 557z" />
    <glyph glyph-name="guilsinglright" unicode="&#x203a;" horiz-adv-x="514" 
d="M149 0h-152l302 550l-141 538h135l149 -557z" />
    <glyph glyph-name="exclamdbl" unicode="&#x203c;" horiz-adv-x="971" 
d="M317 1508h138l-151 -1141h-140zM683 1508h138l-151 -1141h-140zM205 216q50 0 86 -35t36 -87q0 -50 -35.5 -86t-86.5 -36t-86.5 36t-35.5 86t36 86t86 36zM571 216q51 0 86.5 -36t35.5 -86t-35.5 -86t-86.5 -36t-86.5 36t-35.5 86t36 86t86 36z" />
    <glyph glyph-name="radicalex" unicode="&#x203e;" horiz-adv-x="1135" 
d="M-42 1869h1219v-74h-1219v74zM382 1067z" />
    <glyph glyph-name="fraction" unicode="&#x2044;" horiz-adv-x="340" 
d="M-394 -37l932 1545h112l-933 -1545h-111z" />
    <glyph glyph-name="fraction" unicode="&#x2215;" horiz-adv-x="340" 
d="M-394 -37l932 1545h112l-933 -1545h-111z" />
    <glyph glyph-name="nsuperior" unicode="&#x207f;" horiz-adv-x="690" 
d="M152 1256h113l-11 -76q74 93 173 93q86 0 138.5 -69.5t52.5 -177.5q0 -73 -10 -140l-46 -311h-117l45 311q13 85 13 136q0 61 -27.5 104t-81.5 43q-51 0 -93 -34.5t-58.5 -86.5t-35.5 -181l-45 -292h-114z" />
    <glyph glyph-name="franc" unicode="&#x20a3;" horiz-adv-x="993" 
d="M249 418h251l-19 -132h-250l-39 -286h-145l38 286h-169l19 132h168l142 1053h709l-17 -144h-565l-65 -481h565l-18 -141h-566z" />
    <glyph glyph-name="afii08941" unicode="&#x20a4;" horiz-adv-x="1135" 
d="M513 971h356l-18 -137h-318q10 -69 15 -116h285l-18 -137h-263q-2 -189 -55 -323q145 -108 176 -126t68 -18q109 0 144 229h146q-10 -127 -85.5 -253.5t-208.5 -126.5q-129 0 -307 159q-112 -159 -253 -159q-84 0 -137.5 53t-53.5 137q0 92 68 161.5t164 69.5
q84 0 154 -41q32 106 32 238h-314l20 137h285l-12 116h-256l19 137h217q-12 75 -12 137q0 196 118 298t278 102q147 0 237 -91.5t90 -260.5l-1 -32h-144q-3 242 -189 242q-101 0 -171.5 -65.5t-70.5 -178.5q0 -60 15 -151zM317 211q-56 37 -100 37q-39 0 -67 -23t-28 -57
q0 -30 18.5 -49t46.5 -19q67 0 130 111z" />
    <glyph glyph-name="peseta" unicode="&#x20a7;" horiz-adv-x="2303" 
d="M1137 1088h164l58 407h137l-54 -407h339q70 28 139 28q170 0 283 -150l-75 -113q-88 131 -218 131q-80 0 -127.5 -50.5t-47.5 -100.5q0 -49 35.5 -89.5t133.5 -103.5q170 -110 212 -189.5t42 -161.5q0 -142 -98.5 -229.5t-245.5 -87.5q-202 0 -340 179l85 99
q121 -147 263 -147q72 0 136.5 53t64.5 136q0 62 -37 107.5t-163 131.5q-103 70 -163 134.5t-60 158.5q0 76 38 142h-212l-132 -966h-140l132 966h-177q-36 -94 -110 -159.5t-168.5 -88.5t-301.5 -23h-223l-94 -695h-147l197 1471h401q197 0 279.5 -34.5t139.5 -114
t57 -198.5q0 -18 -2 -36zM392 1329l-68 -489h205q180 0 262.5 20t141.5 91t59 170q0 72 -36 123t-98 68t-203 17h-263z" />
    <glyph glyph-name="Euro" unicode="&#x20ac;" horiz-adv-x="1135" 
d="M152 965q103 258 328 400t528 142q76 0 155 -14l-57 -141q-48 12 -105 12q-230 0 -406.5 -102.5t-279.5 -296.5h656l-58 -138h-647q-20 -70 -20 -174h596l-56 -137h-522q39 -189 202.5 -301.5t379.5 -112.5q82 0 147 15l-18 -140q-60 -12 -123 -12q-290 0 -492 147
t-249 404h-146l53 137h76q8 137 19 174h-105l58 138h86z" />
    <glyph glyph-name="afii61248" unicode="&#x2105;" horiz-adv-x="1847" 
d="M768 1330l-97 -51q-62 120 -187 120q-117 0 -191.5 -80t-74.5 -197q0 -98 51 -160.5t144 -62.5q64 0 126 31.5t93 79.5l97 -64q-125 -152 -315 -152q-155 0 -232 94t-77 228q0 164 110.5 278t268.5 114q197 0 284 -178zM396 -37l933 1545h111l-933 -1545h-111zM1471 698
q121 0 203 -91t82 -235q0 -160 -98.5 -274.5t-253.5 -114.5q-128 0 -207 92t-79 228q0 164 102.5 279.5t250.5 115.5zM1467 590q-98 0 -166 -77.5t-68 -204.5q0 -103 53 -161t130 -58q102 0 165 84.5t63 199.5q0 100 -51 158.5t-126 58.5z" />
    <glyph glyph-name="afii61289" unicode="&#x2113;" horiz-adv-x="731" 
d="M-6 586l188 161l62 444q26 189 89 244.5t147 55.5q103 0 170 -69.5t67 -160.5q0 -82 -60.5 -195.5t-300.5 -344.5l-67 -470q-6 -43 -6 -66q0 -72 46 -72q64 0 211 111l-11 -169q-110 -79 -209 -79q-86 0 -147 56t-61 170q0 63 9 124l31 217l-79 -67zM389 952
q120 137 154 202.5t34 117.5q0 45 -20.5 72.5t-51.5 27.5q-58 0 -80 -158z" />
    <glyph glyph-name="afii61352" unicode="&#x2116;" horiz-adv-x="2259" 
d="M1265 1471h144l-199 -1471h-32l-828 1140l-154 -1140h-146l198 1471h32l830 -1142zM2138 675q0 -159 -109.5 -276t-282.5 -117q-142 0 -225 88.5t-83 214.5q0 159 118 276.5t272 117.5q124 0 217 -84.5t93 -219.5zM2018 671q0 76 -49.5 137.5t-143.5 61.5
q-113 0 -190 -85.5t-77 -188.5q0 -84 53.5 -146t145.5 -62q113 0 187 85t74 198zM1386 102h686l-12 -102h-686z" />
    <glyph glyph-name="trademark" unicode="&#x2122;" horiz-adv-x="2048" 
d="M1966 1513v-862h-150v710l-321 -710h-99l-311 710v-710h-149v862h243l267 -597l282 597h238zM770 1513v-137h-305v-725h-150v725h-303v137h758z" />
    <glyph glyph-name="Ohm" unicode="&#x2126;" horiz-adv-x="1573" 
d="M50 165h96q47 0 276 -9q-115 84 -175 206.5t-60 265.5q0 222 119 444.5t289.5 326.5t388.5 104q250 0 393 -149.5t143 -410.5q0 -195 -82 -364t-221 -284q-88 -72 -253 -144q171 12 232 12h116l-48 -163h-545l44 171q153 65 241 135q149 119 230 284.5t81 356.5
q0 197 -90 297.5t-251 100.5q-158 0 -280.5 -85.5t-218.5 -289.5t-96 -404q0 -263 198 -396l-46 -170h-531z" />
    <glyph glyph-name="estimated" unicode="&#x212e;" horiz-adv-x="1229" 
d="M283 531v-371q120 -121 298 -121q254 0 395 246l72 -43q-118 -170 -231.5 -223t-235.5 -53q-232 0 -380.5 158.5t-148.5 406.5q0 252 149.5 408.5t379.5 156.5q214 0 366 -142t163 -423h-827zM879 605v297q-124 121 -300 121q-175 0 -296 -122v-296h596z" />
    <glyph glyph-name="oneeighth" unicode="&#x215b;" horiz-adv-x="1702" 
d="M250 -37l932 1545h112l-932 -1545h-112zM296 1489h204l-120 -756h-109l104 658h-122zM1436 408q129 -61 129 -175q0 -104 -91 -177.5t-229 -73.5q-120 0 -198 62.5t-78 148.5q0 150 189 225q-94 56 -94 141q0 86 85 151t197 65q105 0 171 -56.5t66 -130.5
q0 -111 -147 -180zM1471 579q0 40 -36.5 68.5t-91.5 28.5q-70 0 -119.5 -37t-49.5 -87q0 -41 38 -66.5t98 -25.5q67 0 114 35.5t47 83.5zM1457 235q0 46 -41.5 86t-118.5 40q-87 0 -151.5 -45t-64.5 -115q0 -57 48 -91t121 -34q91 0 149 48t58 111z" />
    <glyph glyph-name="threeeighths" unicode="&#x215c;" horiz-adv-x="1702" 
d="M275 1305h-111q11 97 87 150t170 53q100 0 168.5 -56t68.5 -148q0 -109 -122 -165q103 -67 103 -168q0 -108 -91 -182t-219 -74q-108 0 -186 61.5t-89 177.5h110q23 -141 167 -141q77 0 136.5 46t59.5 107q0 132 -222 132l13 93q20 -1 32 -1q78 0 137.5 32.5t59.5 85.5
q0 45 -40.5 73t-92.5 28q-120 0 -139 -104zM312 -37l932 1545h112l-932 -1545h-112zM1436 408q129 -61 129 -175q0 -104 -91 -177.5t-229 -73.5q-120 0 -198 62.5t-78 148.5q0 150 189 225q-94 56 -94 141q0 86 85 151t197 65q102 0 169.5 -56t67.5 -131q0 -111 -147 -180z
M1471 579q0 40 -37 68.5t-91 28.5q-70 0 -119.5 -37t-49.5 -87q0 -39 35.5 -65.5t100.5 -26.5q67 0 114 35.5t47 83.5zM1457 235q0 49 -43 87.5t-117 38.5q-87 0 -151.5 -45t-64.5 -115q0 -57 48 -91t121 -34q91 0 149 48t58 111z" />
    <glyph glyph-name="fiveeighths" unicode="&#x215d;" horiz-adv-x="1702" 
d="M300 -37l932 1545h112l-932 -1545h-112zM313 1489h375l-16 -98h-280l-54 -153q22 1 35 1q104 0 179.5 -71t75.5 -175q0 -110 -86.5 -194t-225.5 -84q-196 0 -281 171l101 38q59 -111 182 -111q75 0 136 48.5t61 130.5q0 66 -45.5 111t-129.5 45q-67 0 -156 -33zM1436 408
q129 -61 129 -175q0 -104 -91 -177.5t-229 -73.5q-119 0 -197.5 62.5t-78.5 148.5q0 150 189 225q-94 56 -94 141q0 86 85 151t197 65q103 0 170 -56t67 -131q0 -111 -147 -180zM1471 579q0 39 -36 68t-92 29q-70 0 -119.5 -37t-49.5 -87q0 -39 36 -65.5t100 -26.5
q68 0 114.5 35.5t46.5 83.5zM1458 235q0 49 -43.5 87.5t-117.5 38.5q-87 0 -151.5 -45t-64.5 -115q0 -57 48.5 -91t120.5 -34q91 0 149.5 48t58.5 111z" />
    <glyph glyph-name="seveneighths" unicode="&#x215e;" horiz-adv-x="1702" 
d="M225 -37l932 1545h112l-932 -1545h-112zM149 1489h577l-571 -774l-93 52l461 624h-394zM1436 408q129 -61 129 -175q0 -104 -91 -177.5t-229 -73.5q-115 0 -195.5 60.5t-80.5 150.5q0 150 189 225q-94 56 -94 141q0 86 85 151t197 65q103 0 170 -56t67 -131
q0 -111 -147 -180zM1471 579q0 40 -36.5 68.5t-91.5 28.5q-70 0 -119.5 -37t-49.5 -87q0 -41 38 -66.5t98 -25.5q67 0 114 35.5t47 83.5zM1457 235q0 46 -41.5 86t-118.5 40q-87 0 -151.5 -45t-64.5 -115q0 -57 48 -91t121 -34q91 0 149 48t58 111z" />
    <glyph glyph-name="arrowleft" unicode="&#x2190;" horiz-adv-x="2048" 
d="M492 876h76q-81 -170 -195 -309h1595v-101h-1595q102 -102 198 -309h-78q-223 253 -414 341v45q177 71 413 333z" />
    <glyph glyph-name="arrowup" unicode="&#x2191;" horiz-adv-x="1024" 
d="M153 1050q262 236 333 413h46q87 -192 340 -415v-77q-207 96 -309 197v-1597h-101v1597q-139 -114 -309 -195v77z" />
    <glyph glyph-name="arrowright" unicode="&#x2192;" horiz-adv-x="2048" 
d="M1555 876q237 -262 413 -333v-45q-191 -88 -414 -341h-77q95 207 197 309h-1595v101h1595q-114 139 -195 309h76z" />
    <glyph glyph-name="arrowdown" unicode="&#x2193;" horiz-adv-x="1024" 
d="M153 -16v76q170 -81 309 -195v1598h101v-1598q102 102 309 197v-77q-253 -223 -340 -414h-46q-71 176 -333 413z" />
    <glyph glyph-name="arrowboth" unicode="&#x2194;" horiz-adv-x="2048" 
d="M1968 540v-45q-181 -79 -406 -337h-80q69 172 194 311h-1305q125 -139 194 -311h-80q-224 258 -406 337v45q182 79 406 338h80q-69 -172 -194 -311h1305q-125 139 -194 311h80q225 -259 406 -338z" />
    <glyph glyph-name="arrowupdn" unicode="&#x2195;" horiz-adv-x="1024" 
d="M489 1463h45q79 -182 337 -407v-80q-171 69 -311 195v-1306q140 126 311 194v-79q-258 -225 -337 -407h-45q-79 182 -337 407v79q171 -68 311 -194v1306q-140 -126 -311 -195v80q258 225 337 407z" />
    <glyph glyph-name="arrowupdnbse" unicode="&#x21a8;" horiz-adv-x="1024" 
d="M489 1463h45q79 -182 337 -407v-80q-171 69 -311 195v-1306q140 126 311 194v-79q-258 -225 -337 -407h-45q-79 182 -337 407v79q171 -68 311 -194v1306q-140 -126 -311 -195v80q258 225 337 407zM154 -522h717v-98h-717v98z" />
    <glyph glyph-name="partialdiff" unicode="&#x2202;" horiz-adv-x="1012" 
d="M426 1138l-135 60q67 149 163.5 221t196.5 72q88 0 162 -56t117 -181.5t43 -327.5q0 -295 -87.5 -514.5t-231.5 -328t-290 -108.5q-138 0 -223 92t-85 255q0 236 164 398q199 196 638 204q-4 191 -29.5 276.5t-72 124t-103.5 38.5q-143 0 -227 -225zM854 796
q-248 -15 -359 -69t-185 -175t-74 -249q0 -83 51 -137t119 -54q87 0 186 73t168.5 224t93.5 387z" />
    <glyph glyph-name="increment" unicode="&#x2206;" horiz-adv-x="1253" 
d="M1226 0h-1200l628 1387zM990 82l-399 967l-440 -967h839z" />
    <glyph glyph-name="product" unicode="&#x220f;" horiz-adv-x="1685" 
d="M162 1508h1362v-1906h-191v1732h-978v-1732h-193v1906z" />
    <glyph glyph-name="summation" unicode="&#x2211;" 
d="M139 1536h1237v-164h-988l607 -796l-646 -841h1037v-161h-1264v187l620 808l-603 791v176z" />
    <glyph glyph-name="minus" unicode="&#x2212;" horiz-adv-x="1241" 
d="M115 804h1012v-137h-1012v137z" />
    <glyph glyph-name="periodcentered" unicode="&#x2219;" horiz-adv-x="567" 
d="M253 857q51 0 86.5 -35.5t35.5 -85.5q0 -51 -35.5 -86.5t-86.5 -35.5t-86.5 35.5t-35.5 86.5q0 50 35.5 85.5t86.5 35.5z" />
    <glyph glyph-name="radical" unicode="&#x221a;" horiz-adv-x="1124" 
d="M1047 1869h74l-312 -1947l-496 1021l-198 -91l-34 64l301 151l405 -823z" />
    <glyph glyph-name="infinity" unicode="&#x221e;" 
d="M687 812q117 146 186 189t147 43q110 0 199 -78t89 -243q0 -168 -84 -251.5t-204 -83.5q-87 0 -156.5 49t-176.5 183q-136 -171 -289 -171q-102 0 -174 77.5t-72 189.5t72 189.5t174 77.5q153 0 289 -171zM756 717q83 -128 152 -180q50 -38 110 -38q77 0 128 56.5
t51 157.5q0 105 -52 161.5t-131 56.5q-53 0 -103.5 -36.5t-154.5 -177.5zM618 716q-77 97 -125.5 127t-94.5 30q-59 0 -97 -41.5t-38 -112.5q0 -70 39.5 -113t97.5 -43q101 0 218 153z" />
    <glyph glyph-name="orthogonal" unicode="&#x221f;" horiz-adv-x="2005" 
d="M362 1279h100v-1179h1181v-100h-1281v1279z" />
    <glyph glyph-name="intersection" unicode="&#x2229;" horiz-adv-x="1206" 
d="M239 0h-110v621l2 238q1 116 18.5 209t58.5 169t106 135.5t139.5 89.5t149.5 30q118 0 225 -68.5t165 -174t71.5 -224t13.5 -404.5v-621h-110v628q0 243 -10 348.5t-52 190t-127.5 139.5t-175.5 55t-174.5 -55t-126 -137t-52.5 -189.5t-11 -351.5v-628z" />
    <glyph glyph-name="integral" unicode="&#x222b;" horiz-adv-x="561" 
d="M201 948q0 209 16 499q10 184 54 292q25 60 71.5 92t92.5 32q49 0 87 -33t38 -74q0 -46 -26.5 -75t-65.5 -29q-35 0 -76 36q-23 20 -40 20q-18 0 -29 -14.5t-11 -49.5q0 -42 9 -145q37 -410 37 -665q0 -67 -15 -567q-9 -305 -84 -410q-55 -77 -141 -77q-52 0 -85 34
t-33 87q0 44 25.5 71.5t64.5 27.5q40 0 70 -33q28 -31 48 -31q17 0 28 14.5t11 46.5q0 42 -9 120q-37 316 -37 831z" />
    <glyph glyph-name="approxequal" unicode="&#x2248;" horiz-adv-x="1124" 
d="M1070 1023v-162q-112 -63 -160.5 -79.5t-91.5 -16.5q-95 0 -265 77q-132 60 -168.5 71.5t-68.5 11.5q-44 0 -97 -19t-165 -86v160q110 63 159 79.5t95 16.5q97 0 268 -81q118 -56 161.5 -69.5t78.5 -13.5q42 0 85 16.5t169 94.5zM1070 651v-162q-112 -63 -160.5 -79.5
t-91.5 -16.5q-95 0 -265 77q-132 60 -168.5 71.5t-68.5 11.5q-44 0 -97 -19.5t-165 -85.5v160q110 62 159 79t95 17q97 0 268 -81q118 -56 161.5 -69.5t78.5 -13.5q42 0 85 16.5t169 94.5z" />
    <glyph glyph-name="notequal" unicode="&#x2260;" horiz-adv-x="1124" 
d="M742 1024h326v-137h-379l-117 -303h496v-137h-549l-187 -484h-138l186 484h-324v137h377l116 303h-493v137h545l186 484h142z" />
    <glyph glyph-name="equivalence" unicode="&#x2261;" horiz-adv-x="1241" 
d="M1127 1244v-137h-1012v137h1012zM1127 804v-137h-1012v137h1012zM1127 364v-137h-1012v137h1012z" />
    <glyph glyph-name="lessequal" unicode="&#x2264;" horiz-adv-x="1124" 
d="M1079 481v-146l-1033 469v130l1033 471v-147l-839 -390zM1079 231v-137h-1033v137h1033z" />
    <glyph glyph-name="greaterequal" unicode="&#x2265;" horiz-adv-x="1124" 
d="M46 481l839 387l-839 390v147l1033 -471v-130l-1033 -469v146zM1079 231v-137h-1033v137h1033z" />
    <glyph glyph-name="house" unicode="&#x2302;" horiz-adv-x="1229" 
d="M153 0v634l461 519l462 -519v-634h-923zM234 81h761v519l-381 427l-380 -427v-519z" />
    <glyph glyph-name="revlogicalnot" unicode="&#x2310;" horiz-adv-x="1241" 
d="M83 1024h1012v-137h-875v-440h-137v577z" />
    <glyph glyph-name="integraltp" unicode="&#x2320;" horiz-adv-x="1229" 
d="M687 -515h-145v1811q0 207 86 324t206 117q74 0 106 -34.5t32 -74.5q0 -41 -26.5 -66.5t-61.5 -25.5q-34 0 -55.5 13.5t-42.5 47.5q-24 37 -47 37q-29 0 -40.5 -24.5t-11.5 -153.5v-1971z" />
    <glyph glyph-name="integralbt" unicode="&#x2321;" horiz-adv-x="1229" 
d="M542 1737h145v-1811q0 -207 -86 -324t-206 -117q-59 0 -98.5 28t-39.5 81q0 41 26.5 66.5t60.5 25.5q35 0 56.5 -14t42.5 -47q24 -37 47 -37q29 0 40.5 24t11.5 154v1971z" />
    <glyph glyph-name="SF100000" unicode="&#x2500;" 
d="M1478 534h-1496v175h1496v-175z" />
    <glyph glyph-name="SF110000" unicode="&#x2502;" horiz-adv-x="1270" 
d="M452 -621v2485h175v-2485h-175z" />
    <glyph glyph-name="SF010000" unicode="&#x250c;" 
d="M1479 709v-175h-661v-1155h-175v1330h836z" />
    <glyph glyph-name="SF030000" unicode="&#x2510;" 
d="M642 534h-660v175h835v-1330h-175v1155z" />
    <glyph glyph-name="SF020000" unicode="&#x2514;" 
d="M643 534v1330h175v-1155h661v-175h-836z" />
    <glyph glyph-name="SF040000" unicode="&#x2518;" 
d="M817 534h-835v175h660v1155h175v-1330z" />
    <glyph glyph-name="SF080000" unicode="&#x251c;" 
d="M643 -621v2485h175v-1155h661v-175h-661v-1155h-175z" />
    <glyph glyph-name="SF090000" unicode="&#x2524;" 
d="M642 -621v1155h-660v175h660v1155h175v-2485h-175z" />
    <glyph glyph-name="SF060000" unicode="&#x252c;" 
d="M642 534h-660v175h1496v-175h-661v-1155h-175v1155z" />
    <glyph glyph-name="SF070000" unicode="&#x2534;" 
d="M1478 534h-1496v175h660v1155h175v-1155h661v-175z" />
    <glyph glyph-name="SF050000" unicode="&#x253c;" 
d="M642 534h-660v175h660v1155h175v-1155h661v-175h-661v-1155h-175v1155z" />
    <glyph glyph-name="SF430000" unicode="&#x2550;" 
d="M1478 724h-1496v175h1496v-175zM1478 344h-1496v175h1496v-175z" />
    <glyph glyph-name="SF240000" unicode="&#x2551;" 
d="M833 -621v2485h175v-2485h-175zM453 -621v2485h175v-2485h-175z" />
    <glyph glyph-name="SF510000" unicode="&#x2552;" 
d="M643 -621v1520h836v-175h-661v-205h661v-175h-661v-965h-175z" />
    <glyph glyph-name="SF520000" unicode="&#x2553;" 
d="M453 -621v1330h1026v-175h-471v-1155h-175v1140h-205v-1140h-175z" />
    <glyph glyph-name="SF390000" unicode="&#x2554;" 
d="M628 -621h-175v1520h1025v-175h-850v-1345zM1008 344v-965h-175v1140h645v-175h-470z" />
    <glyph glyph-name="SF220000" unicode="&#x2555;" 
d="M642 344h-660v175h660v205h-660v175h835v-1520h-175v965z" />
    <glyph glyph-name="SF210000" unicode="&#x2556;" 
d="M452 -621v1155h-470v175h1025v-1330h-175v1155h-205v-1155h-175z" />
    <glyph glyph-name="SF250000" unicode="&#x2557;" 
d="M832 -621v1345h-850v175h1025v-1520h-175zM452 344h-470v175h645v-1140h-175v965z" />
    <glyph glyph-name="SF500000" unicode="&#x2558;" 
d="M643 344v1520h175v-965h661v-175h-661v-205h661v-175h-836z" />
    <glyph glyph-name="SF490000" unicode="&#x2559;" 
d="M1478 534h-1025v1330h175v-1155h205v1155h175v-1155h470v-175z" />
    <glyph glyph-name="SF380000" unicode="&#x255a;" 
d="M628 1864v-1345h850v-175h-1025v1520h175zM1008 899h470v-175h-645v1140h175v-965z" />
    <glyph glyph-name="SF280000" unicode="&#x255b;" 
d="M817 344h-835v175h660v205h-660v175h660v965h175v-1520z" />
    <glyph glyph-name="SF270000" unicode="&#x255c;" 
d="M1007 534h-1025v175h470v1155h175v-1155h205v1155h175v-1330z" />
    <glyph glyph-name="SF260000" unicode="&#x255d;" 
d="M832 1864h175v-1520h-1025v175h850v1345zM452 899v965h175v-1140h-645v175h470z" />
    <glyph glyph-name="SF360000" unicode="&#x255e;" 
d="M643 -621v2485h175v-965h661v-175h-661v-205h661v-175h-661v-965h-175z" />
    <glyph glyph-name="SF370000" unicode="&#x255f;" 
d="M833 -621v2485h175v-1155h471v-175h-471v-1155h-175zM453 -621v2485h175v-2485h-175z" />
    <glyph glyph-name="SF420000" unicode="&#x2560;" 
d="M453 -621v2485h175v-2485h-175zM833 724v1140h175v-965h471v-175h-646zM833 -621v1140h646v-175h-471v-965h-175z" />
    <glyph glyph-name="SF190000" unicode="&#x2561;" 
d="M642 344h-660v175h660v205h-660v175h660v965h175v-2485h-175v965z" />
    <glyph glyph-name="SF200000" unicode="&#x2562;" 
d="M452 -621v1155h-470v175h470v1155h175v-2485h-175zM832 -621v2485h175v-2485h-175z" />
    <glyph glyph-name="SF230000" unicode="&#x2563;" 
d="M832 -621v2485h175v-2485h-175zM627 1864v-1140h-645v175h470v965h175zM452 344h-470v175h645v-1140h-175v965z" />
    <glyph glyph-name="SF470000" unicode="&#x2564;" 
d="M1478 724h-1496v175h1496v-175zM642 344h-660v175h1496v-175h-661v-965h-175v965z" />
    <glyph glyph-name="SF480000" unicode="&#x2565;" 
d="M452 -621v1155h-470v175h1496v-175h-471v-1155h-175v1140h-205v-1140h-175z" />
    <glyph glyph-name="SF410000" unicode="&#x2566;" 
d="M1478 724h-1496v175h1496v-175zM452 344h-470v175h645v-1140h-175v965zM832 -621v1140h646v-175h-471v-965h-175z" />
    <glyph glyph-name="SF450000" unicode="&#x2567;" 
d="M1478 724h-1496v175h660v965h175v-965h661v-175zM1478 344h-1496v175h1496v-175z" />
    <glyph glyph-name="SF460000" unicode="&#x2568;" 
d="M1478 534h-1496v175h470v1155h175v-1155h205v1155h175v-1155h471v-175z" />
    <glyph glyph-name="SF400000" unicode="&#x2569;" 
d="M627 724h-645v175h470v965h175v-1140zM1478 724h-646v1140h175v-965h471v-175zM1478 344h-1496v175h1496v-175z" />
    <glyph glyph-name="SF540000" unicode="&#x256a;" 
d="M642 344h-660v175h660v205h-660v175h660v965h175v-965h661v-175h-661v-205h661v-175h-661v-965h-175v965z" />
    <glyph glyph-name="SF530000" unicode="&#x256b;" 
d="M452 -621v1155h-470v175h470v1155h175v-1155h205v1155h175v-1155h471v-175h-471v-1155h-175v1155h-205v-1155h-175z" />
    <glyph glyph-name="SF440000" unicode="&#x256c;" 
d="M1008 899h470v-175h-645v1140h175v-965zM452 899v965h175v-1140h-645v175h470zM452 344h-470v175h645v-1140h-175v965zM1008 344v-965h-175v1140h645v-175h-470z" />
    <glyph glyph-name="upblock" unicode="&#x2580;" 
d="M1478 621h-1496v1243h1496v-1243z" />
    <glyph glyph-name="dnblock" unicode="&#x2584;" 
d="M1478 -621h-1496v1242h1496v-1242z" />
    <glyph glyph-name="block" unicode="&#x2588;" 
d="M-18 -621v2485h1496v-2485h-1496z" />
    <glyph glyph-name="lfblock" unicode="&#x258c;" 
d="M-18 -621v2485h748v-2485h-748z" />
    <glyph glyph-name="rtblock" unicode="&#x2590;" 
d="M730 -621v2485h748v-2485h-748z" />
    <glyph glyph-name="ltshade" unicode="&#x2591;" 
d="M107 1864h125v-125h-125v125zM605 1864h125v-125h-125v125zM1104 1864h125v-125h-125v125zM356 1615h125v-125h-125v125zM855 1615h124v-125h-124v125zM1353 1615h125v-125h-125v125zM1104 1366h125v-125h-125v125zM605 1366h125v-125h-125v125zM107 1366h125v-125h-125
v125zM1353 1116h125v-124h-125v124zM855 1116h124v-124h-124v124zM356 1116h125v-124h-125v124zM107 867h125v-125h-125v125zM605 867h125v-125h-125v125zM1104 867h125v-125h-125v125zM1353 618h125v-125h-125v125zM855 618h124v-125h-124v125zM356 618h125v-125h-125v125z
M107 369h125v-125h-125v125zM605 369h125v-125h-125v125zM1104 369h125v-125h-125v125zM356 119h125v-124h-125v124zM855 119h124v-124h-124v124zM1353 119h125v-124h-125v124zM1104 -130h125v-125h-125v125zM605 -130h125v-125h-125v125zM107 -130h125v-125h-125v125z
M356 -379h125v-125h-125v125zM855 -379h124v-125h-124v125zM1353 -379h125v-125h-125v125z" />
    <glyph glyph-name="shade" unicode="&#x2592;" 
d="M107 1864h124v-125h-124v125zM356 1864h124v-125h-124v125zM605 1864h125v-125h-125v125zM854 1864h125v-125h-125v125zM1104 1864h124v-125h-124v125zM1353 1864h124v-125h-124v125zM-18 1615h125v-125h-125v125zM231 1615h125v-125h-125v125zM480 1615h125v-125h-125
v125zM730 1615h124v-125h-124v125zM979 1615h125v-125h-125v125zM1228 1615h125v-125h-125v125zM107 1366h124v-125h-124v125zM356 1366h124v-125h-124v125zM605 1366h125v-125h-125v125zM854 1366h125v-125h-125v125zM1104 1366h124v-125h-124v125zM1353 1366h124v-125
h-124v125zM-18 1116h125v-124h-125v124zM231 1116h125v-124h-125v124zM480 1116h125v-124h-125v124zM730 1116h124v-124h-124v124zM979 1116h125v-124h-125v124zM1228 1116h125v-124h-125v124zM107 867h124v-125h-124v125zM356 867h124v-125h-124v125zM605 867h125v-125
h-125v125zM854 867h125v-125h-125v125zM1104 867h124v-125h-124v125zM1353 867h124v-125h-124v125zM-18 618h125v-125h-125v125zM480 618h125v-125h-125v125zM730 618h124v-125h-124v125zM979 618h125v-125h-125v125zM1228 618h125v-125h-125v125zM231 618h125v-125h-125
v125zM1353 369h124v-125h-124v125zM1104 369h124v-125h-124v125zM854 369h125v-125h-125v125zM605 369h125v-125h-125v125zM356 369h124v-125h-124v125zM107 369h124v-125h-124v125zM-18 119h125v-124h-125v124zM231 119h125v-124h-125v124zM480 119h125v-124h-125v124z
M730 119h124v-124h-124v124zM979 119h125v-124h-125v124zM1228 119h125v-124h-125v124zM1353 -130h124v-125h-124v125zM1104 -130h124v-125h-124v125zM854 -130h125v-125h-125v125zM605 -130h125v-125h-125v125zM356 -130h124v-125h-124v125zM107 -130h124v-125h-124v125z
M-18 -379h125v-125h-125v125zM231 -379h125v-125h-125v125zM480 -379h125v-125h-125v125zM730 -379h124v-125h-124v125zM979 -379h125v-125h-125v125zM1228 -379h125v-125h-125v125z" />
    <glyph glyph-name="dkshade" unicode="&#x2593;" horiz-adv-x="1495" 
d="M1495 1490v-374h-124v-124h124v-374h-124v-125h124v-374h-124v-124h124v-374h-124v-125h124v-124h-1495v373h125v125h-125v374h125v125h-125v373h125v125h-125v374h125v125h-125v373h125v125h124v-125h125v125h124v-125h125v125h125v-125h124v125h125v-125h125v125h124
v-125h125v125h124v-249h-124v-125h124zM125 1615v-125h124v125h-124zM374 1615v-125h124v125h-124zM623 1615v-125h125v125h-125zM872 1615v-125h125v125h-125zM1122 1615v-125h124v125h-124zM1371 1366h-125v-125h125v125zM1122 1366h-125v-125h125v125zM872 1366h-124
v-125h124v125zM623 1366h-125v-125h125v125zM374 1366h-125v-125h125v125zM125 1116v-124h124v124h-124zM374 1116v-124h124v124h-124zM623 1116v-124h125v124h-125zM872 1116v-124h125v124h-125zM1122 1116v-124h124v124h-124zM374 867h-125v-125h125v125zM498 867v-125
h125v125h-125zM748 867v-125h124v125h-124zM997 867v-125h125v125h-125zM1246 867v-125h125v125h-125zM125 618v-125h124v125h-124zM623 618v-125h125v125h-125zM498 493v125h-124v-125h124zM872 618v-125h125v125h-125zM1122 618v-125h124v125h-124zM1371 244v125h-125
v-125h125zM1122 244v125h-125v-125h125zM872 244v125h-124v-125h124zM623 244v125h-125v-125h125zM374 244v125h-125v-125h125zM125 119v-124h124v124h-124zM374 119v-124h124v124h-124zM623 119v-124h125v124h-125zM872 119v-124h125v124h-125zM1122 119v-124h124v124h-124
zM1371 -255v125h-125v-125h125zM1122 -255v125h-125v-125h125zM872 -255v125h-124v-125h124zM623 -255v125h-125v-125h125zM374 -255v125h-125v-125h125zM125 -379v-125h124v125h-124zM374 -379v-125h124v125h-124zM623 -379v-125h125v125h-125zM872 -379v-125h125v125h-125
zM1122 -379v-125h124v125h-124z" />
    <glyph glyph-name="filledbox" unicode="&#x25a0;" horiz-adv-x="1237" 
d="M146 944h944v-944h-944v944z" />
    <glyph glyph-name="H22073" unicode="&#x25a1;" horiz-adv-x="1237" 
d="M146 944h944v-944h-944v944zM222 868v-792h792v792h-792z" />
    <glyph glyph-name="H18543" unicode="&#x25aa;" horiz-adv-x="726" 
d="M594 909v-464h-463v463z" />
    <glyph glyph-name="H18551" unicode="&#x25ab;" horiz-adv-x="726" 
d="M594 909v-464h-463v463zM518 833l-311 -1v-311h311v312z" />
    <glyph glyph-name="filledrect" unicode="&#x25ac;" horiz-adv-x="2048" 
d="M0 703h2047v-386h-2047v386z" />
    <glyph glyph-name="triagup" unicode="&#x25b2;" horiz-adv-x="2027" 
d="M304 0l710 1419l710 -1419h-1420z" />
    <glyph glyph-name="triagrt" unicode="&#x25ba;" horiz-adv-x="2027" 
d="M288 1417l1451 -724l-1451 -724v1448z" />
    <glyph glyph-name="triagdn" unicode="&#x25bc;" horiz-adv-x="2027" 
d="M1724 1388l-710 -1419l-710 1419h1420z" />
    <glyph glyph-name="triaglf" unicode="&#x25c4;" horiz-adv-x="2027" 
d="M1739 1417v-1448l-1451 724z" />
    <glyph glyph-name="lozenge" unicode="&#x25ca;" horiz-adv-x="1012" 
d="M549 1422l418 -713l-418 -709h-111l-391 709l391 713h111zM495 1325l-340 -616l340 -615l359 615z" />
    <glyph glyph-name="circle" unicode="&#x25cb;" horiz-adv-x="1229" 
d="M1055 578q0 -182 -129.5 -311.5t-310.5 -129.5q-183 0 -312 129t-129 312q0 182 129.5 311t310.5 129q183 0 312 -129t129 -311zM979 578q0 150 -107 257t-257 107q-151 0 -258 -107.5t-107 -256.5t107 -257t258 -108q150 0 257 107.5t107 257.5z" />
    <glyph glyph-name="H18533" unicode="&#x25cf;" horiz-adv-x="1237" 
d="M619 1018q181 0 310.5 -129t129.5 -311t-129 -311.5t-311 -129.5t-311.5 129.5t-129.5 311.5q0 189 131.5 314.5t309.5 125.5z" />
    <glyph glyph-name="invbullet" unicode="&#x25d8;" horiz-adv-x="1229" 
d="M124 0v980h980v-980h-980zM816 490q0 83 -59 142.5t-143 59.5q-82 0 -142 -59t-60 -143q0 -83 59.5 -142.5t142.5 -59.5q84 0 143 60t59 142z" />
    <glyph glyph-name="invcircle" unicode="&#x25d9;" horiz-adv-x="1229" 
d="M38 0v1155h1155v-1155h-1155zM1056 577q0 181 -129.5 311t-310.5 130q-183 0 -312 -130t-129 -311t129 -310.5t312 -129.5q181 0 310.5 129.5t129.5 310.5zM980 577q0 -150 -107 -257t-257 -107q-151 0 -258 107t-107 257q0 151 107.5 258t257.5 107q149 0 256.5 -107
t107.5 -258z" />
    <glyph glyph-name="openbullet" unicode="&#x25e6;" horiz-adv-x="726" 
d="M363 928q101 0 176 -72t75 -179q0 -104 -73.5 -177.5t-177.5 -73.5t-177.5 73.5t-73.5 177.5t74 177.5t177 73.5zM363 852q-71 0 -123 -50t-52 -125q0 -73 51.5 -124t123.5 -51t123.5 51t51.5 124q0 74 -52 124.5t-123 50.5z" />
    <glyph glyph-name="smileface" unicode="&#x263a;" horiz-adv-x="2091" 
d="M1683 518q0 -262 -187 -449.5t-450 -187.5q-264 0 -451 186.5t-187 450.5q0 263 187.5 450.5t450.5 187.5q264 0 450.5 -186.5t186.5 -451.5zM1591 518q0 225 -160.5 385t-384.5 160q-225 0 -385 -160t-160 -385q0 -224 160 -384t385 -160q224 0 384.5 160t160.5 384z
M882 650q0 -33 -23.5 -57t-57.5 -24q-33 0 -57 24t-24 57q0 34 24 57.5t57 23.5q34 0 57.5 -23.5t23.5 -57.5zM1371 650q0 -33 -24 -57t-57 -24t-57 24t-24 57q0 34 24 57.5t57 23.5q34 0 57.5 -23.5t23.5 -57.5zM752 313l62 36q79 -144 232 -144t231 144l63 -36
q-104 -195 -294 -195q-191 0 -294 195z" />
    <glyph glyph-name="invsmileface" unicode="&#x263b;" horiz-adv-x="2155" 
d="M1715 518q0 -262 -187 -449.5t-450 -187.5q-264 0 -451 186.5t-187 450.5q0 263 187.5 450.5t450.5 187.5q264 0 450.5 -186.5t186.5 -451.5zM914 650q0 34 -23.5 57.5t-57.5 23.5q-33 0 -57 -23.5t-24 -57.5q0 -33 24 -57t57 -24q34 0 57.5 24t23.5 57zM1403 650
q0 34 -23.5 57.5t-57.5 23.5q-33 0 -57 -23.5t-24 -57.5q0 -33 24 -57t57 -24t57 24t24 57zM784 313q103 -195 294 -195q190 0 294 195l-63 36q-78 -144 -231 -144t-232 144z" />
    <glyph glyph-name="sun" unicode="&#x263c;" horiz-adv-x="1878" 
d="M902 1621h76v-337q191 -7 350 -140l289 283l52 -53l-286 -286q140 -175 143 -358h336v-69h-336q-14 -190 -143 -348l286 -289l-57 -51l-284 280q-167 -125 -350 -139v-337h-76v337q-203 25 -345 139l-296 -280l-49 51l284 289q-125 153 -144 352h-336v69h336
q14 197 144 349l-284 287l49 57l291 -283q180 130 350 140v337zM1450 699q0 212 -150.5 362t-362.5 150q-211 0 -361.5 -150.5t-150.5 -361.5t150.5 -362t361.5 -151t362 151t151 362z" />
    <glyph glyph-name="female" unicode="&#x2640;" horiz-adv-x="1131" 
d="M591 481v-365h417v-54h-417v-399h-54v399h-418v54h418v365q-81 0 -189.5 51.5t-183.5 167.5t-75 256q0 196 139.5 336t336.5 140q196 0 336 -140t140 -336q0 -185 -127.5 -323.5t-322.5 -151.5zM992 955q0 176 -125 301t-302 125q-176 0 -301.5 -125.5t-125.5 -300.5
q0 -176 125.5 -301.5t301.5 -125.5t301.5 125.5t125.5 301.5z" />
    <glyph glyph-name="male" unicode="&#x2642;" horiz-adv-x="1366" 
d="M1107 1372l29 -10q35 -359 161 -615l-25 -16q-149 188 -222 415l-295 -635q110 -42 201 -162t91 -268q0 -188 -133 -304t-326 -116q-205 0 -345.5 134.5t-140.5 322.5t130.5 316t306.5 128q76 0 170 -33l293 636q-214 -90 -457 -104v27q165 51 255.5 97.5t306.5 186.5z
M531 516q-158 0 -272 -113.5t-114 -268.5q0 -172 116.5 -282.5t274.5 -110.5q162 0 273.5 113.5t111.5 267.5q0 169 -118.5 281.5t-271.5 112.5z" />
    <glyph glyph-name="spade" unicode="&#x2660;" horiz-adv-x="1092" 
d="M547 1231q18 -82 64.5 -169t203.5 -230q122 -111 169.5 -181t47.5 -152q0 -96 -64.5 -160t-155.5 -64q-154 0 -254 190q0 -230 101 -325.5t277 -102.5l7 -37h-793l8 37q182 0 282.5 105t100.5 282v41q-90 -190 -262 -190q-91 0 -155 66t-64 155q0 150 188 305
q262 215 299 430z" />
    <glyph glyph-name="club" unicode="&#x2663;" horiz-adv-x="1354" 
d="M1103 0h-848l8 34q153 33 219.5 68.5t125 138.5t58.5 228l-1 42q-55 -117 -143.5 -177.5t-183.5 -60.5q-115 0 -196.5 81t-81.5 199q0 111 72.5 193t169.5 82q64 0 163 -51q-67 106 -67 182q0 113 79 192.5t197 79.5t198.5 -79.5t80.5 -187.5q0 -94 -69 -187
q106 53 162 53q105 0 176 -82t71 -191q0 -120 -81 -201.5t-193 -81.5q-78 0 -167 49.5t-165 187.5q4 -157 48 -250.5t122.5 -144.5t237.5 -82z" />
    <glyph glyph-name="heart" unicode="&#x2665;" horiz-adv-x="1210" 
d="M607 -24q-32 122 -92.5 228.5t-275.5 389.5q-101 133 -140 212t-39 163q0 110 74 185.5t183 75.5q206 0 290 -251q34 129 113.5 190.5t171.5 61.5q109 0 183.5 -75t74.5 -177q0 -84 -40 -179t-174 -264q-284 -360 -329 -560z" />
    <glyph glyph-name="diamond" unicode="&#x2666;" horiz-adv-x="1038" 
d="M517 1231q193 -323 461 -627q-52 -52 -214 -265t-247 -363q-101 190 -457 628q324 383 457 627z" />
    <glyph glyph-name="musicalnote" unicode="&#x266a;" horiz-adv-x="1579" 
d="M926 1535h60q164 -100 366 -309t202 -285q0 -16 -20 -44.5t-39 -28.5q-28 0 -63 44q-55 66 -195 190t-242 188l26 -1374q0 -122 -71.5 -193t-217 -131.5t-291.5 -60.5q-197 0 -306 99t-109 228q0 159 162.5 279t372.5 120q192 0 396 -94z" />
    <glyph glyph-name="musicalnotedbl" unicode="&#x266b;" horiz-adv-x="2048" 
d="M832 1195l934 291v-1301q0 -148 -37.5 -221t-125 -121t-200.5 -48q-145 0 -212.5 77t-67.5 186q0 117 90 202t234 85q84 0 200 -50v850l-699 -217v-981q0 -123 -29.5 -203t-121 -136.5t-216.5 -56.5q-121 0 -199 69t-78 192q0 129 93 210.5t230 81.5q95 0 205 -54v1145z
" />
    <glyph glyph-name="apple" unicode="&#xf000;" horiz-adv-x="1617" 
 />
    <glyph glyph-name="fi" unicode="&#xf001;" horiz-adv-x="997" 
d="M610 1088l-16 -121h-225l-138 -967h-139l133 967h-140l18 121h144l15 107q24 173 114 257t233 84q126 0 202 -70.5t88 -200.5h-143q-20 138 -151 138q-87 0 -135.5 -47.5t-67.5 -170.5l-15 -97h223zM875 1088l-157 -1088h-138l154 1088h141z" />
    <glyph glyph-name="fi" unicode="&#xfb01;" horiz-adv-x="997" 
d="M610 1088l-16 -121h-225l-138 -967h-139l133 967h-140l18 121h144l15 107q24 173 114 257t233 84q126 0 202 -70.5t88 -200.5h-143q-20 138 -151 138q-87 0 -135.5 -47.5t-67.5 -170.5l-15 -97h223zM875 1088l-157 -1088h-138l154 1088h141z" />
    <glyph glyph-name="fl" unicode="&#xf002;" horiz-adv-x="993" 
d="M615 1088l-19 -122h-223l-138 -966h-134l134 966h-149l15 122h150q28 198 69 279.5t112.5 125t164.5 43.5q130 0 209 -80t79 -218q0 -61 -10 -137l-153 -1101h-143l161 1137q9 64 9 103q0 76 -41 117t-116 41q-78 0 -125.5 -50.5t-63.5 -175.5l-12 -84h224z" />
    <glyph glyph-name="fl" unicode="&#xfb02;" horiz-adv-x="993" 
d="M615 1088l-19 -122h-223l-138 -966h-134l134 966h-149l15 122h150q28 198 69 279.5t112.5 125t164.5 43.5q130 0 209 -80t79 -218q0 -61 -10 -137l-153 -1101h-143l161 1137q9 64 9 103q0 76 -41 117t-116 41q-78 0 -125.5 -50.5t-63.5 -175.5l-12 -84h224z" />
    <glyph glyph-name="foursuperior" unicode="&#xf003;" horiz-adv-x="680" 
d="M620 1532l-87 -544h122l-16 -100h-121l-24 -155h-108l24 155h-397l607 644v0zM462 1214l-213 -226h177z" />
    <glyph glyph-name="commaaccent" unicode="&#xf004;" horiz-adv-x="682" 
d="M222 -75l114 -57l-230 -339l-85 37z" />
    <glyph glyph-name="undercommaaccent" unicode="&#xf005;" horiz-adv-x="682" 
d="M141 -120q40 10 84 10q138 0 138 -95q0 -70 -69 -122.5t-184 -52.5q-63 0 -138 21l32 70q56 -12 97 -12q139 0 139 70q0 38 -62 38q-26 0 -61 -7z" />
    <glyph glyph-name="pi1" unicode="&#xf006;" horiz-adv-x="1124" 
d="M126 914l44 149h1061l-48 -150h-120l-281 -913h-201l280 913l-378 1l-280 -914h-203l282 914h-156z" />
    <glyph glyph-name="noGamma" unicode="&#xf100;" horiz-adv-x="1111" 
d="M177 1467h889v-174h-695v-1293h-194v1467z" />
    <glyph glyph-name="noTheta" unicode="&#xf101;" horiz-adv-x="1530" 
d="M773 1503q299 0 470.5 -203.5t171.5 -568.5q0 -225 -73.5 -404t-221.5 -273t-344 -94q-211 0 -352.5 86.5t-225 261t-83.5 426.5q0 348 167.5 558.5t490.5 210.5zM773 1345q-214 0 -333 -150t-119 -458q0 -222 54 -351.5t150 -198.5t236 -69q211 0 330 149.5t119 477.5
q0 283 -115.5 441.5t-321.5 158.5zM492 829h547v-167h-547v167z" />
    <glyph glyph-name="noPhi" unicode="&#xf102;" horiz-adv-x="1713" 
d="M761 1503h194v-194q643 -23 643 -585q0 -565 -643 -587v-312h-194v312q-646 23 -646 587q0 264 150.5 417.5t495.5 167.5v194zM761 1155q-436 -4 -436 -432q0 -409 436 -434v866zM955 1155v-866q435 8 435 435q0 423 -435 431z" />
    <glyph glyph-name="noalpha" unicode="&#xf103;" horiz-adv-x="1287" 
d="M952 192q-137 -220 -372 -220q-227 0 -351.5 154t-124.5 381q0 263 130 418t352 155q244 0 361 -197l44 180h195q-71 -260 -71 -514q0 -289 84 -549h-202q-31 113 -45 192zM620 942q-146 0 -226 -109t-80 -312q0 -185 79 -298t227 -113q146 0 226.5 104.5t80.5 316.5
q0 186 -74.5 298.5t-232.5 112.5z" />
    <glyph glyph-name="nodelta" unicode="&#xf104;" horiz-adv-x="1270" 
d="M652 942q-159 123 -208.5 202t-49.5 163q0 116 99 182.5t273 66.5q124 0 231 -31v-132q-123 20 -187 20q-99 0 -155 -35.5t-56 -90.5q0 -43 31 -84t115 -108q244 -191 332.5 -325t88.5 -290q0 -215 -140.5 -361.5t-393.5 -146.5q-238 0 -383 144t-145 369q0 151 67 251.5
t167 157t223 56.5q36 0 91 -8zM641 841q-158 0 -243.5 -98t-85.5 -266q0 -171 87.5 -270t237.5 -99q138 0 228.5 93.5t90.5 273.5q0 154 -77.5 260t-237.5 106z" />
    <glyph glyph-name="noepsilon" unicode="&#xf105;" horiz-adv-x="1047" 
d="M943 -12q-102 -16 -197 -16q-300 0 -471 142.5t-171 408.5q0 242 153.5 399.5t456.5 157.5q100 0 216 -14v-147l-26 2q-129 9 -180 9q-366 0 -407 -320h605v-141h-607q3 -152 114 -249.5t344 -97.5q96 0 170 16v-150z" />
    <glyph glyph-name="nosigma" unicode="&#xf106;" horiz-adv-x="1398" 
d="M1019 912q142 -136 142 -383q0 -253 -138 -405t-388 -152q-246 0 -388.5 148.5t-142.5 407.5q0 258 141.5 405t362.5 147q42 0 156 -8q44 -4 132 -8h463v-152h-340zM640 955q-330 0 -330 -443q0 -180 81 -292t239 -112q165 0 244.5 113t79.5 316q0 181 -75.5 299.5
t-238.5 118.5z" />
    <glyph glyph-name="notau" unicode="&#xf107;" horiz-adv-x="981" 
d="M41 1063h900v-160h-353v-903h-194v903h-353v160z" />
    <glyph glyph-name="nophi" unicode="&#xf108;" horiz-adv-x="1580" 
d="M698 1332h188v-257q269 -4 429.5 -137t160.5 -393q0 -174 -55 -288t-195.5 -191t-341.5 -81v-372h-190v373q-246 2 -418 130.5t-172 420.5q0 270 160 400t434 140v255zM696 941q-132 -5 -214 -49t-124.5 -135.5t-42.5 -222.5q0 -410 381 -412v819zM886 941v-819
q380 3 380 414q0 400 -380 405z" />
  </font>
</defs>
</svg>
